买野货

搜索
收起左侧

[1080p资源] 寄生虫 기생충 PARASITE.2019.1080p.FHDRip.H264.AAC免费下载

[复制链接]
朱古力小酥酥 发表于 2019-8-14 08:51 | 显示全部楼层 |阅读模式
p2565042458.jpg
 《寄生虫》讲述了发生在身份地位悬殊的两个家庭身上的故事:宋康昊饰演的无业游民父亲基泽,让寄托了家人生计希望的大儿子(崔宇植 饰)前往IT公司老总朴社长(李善均 饰)家应聘课外教师,随之发生了一连串意外事件。

寄生虫  PARASITE.2019.1080p.FHDRip.H264.AAC 1.png
寄生虫  PARASITE.2019.1080p.FHDRip.H264.AAC2.png
  1. General
  2. Complete name                  : G:\Maiyehuo\[Maiyehuo.com]寄生虫 기생충 PARASITE.2019.1080p.FHDRip.H264.AAC\寄生虫 기생충 PARASITE.2019.1080p.FHDRip.H264.AAC-Maiyehuo.mp4
  3. Format                         : MPEG-4
  4. Format profile                 : Base Media
  5. Codec ID                       : isom (isom/iso2/avc1/mp41)
  6. File size                      : 5.03 GiB
  7. Duration                       : 2 h 12 min
  8. Overall bit rate               : 5 449 kb/s
  9. Writing application            : Lavf57.71.100

  10. Video
  11. ID                             : 1
  12. Format                         : AVC
  13. Format/Info                    : Advanced Video Codec
  14. Format profile                 : High@L4
  15. Format settings                : CABAC / 4 Ref Frames
  16. Format settings, CABAC         : Yes
  17. Format settings, Reference fra : 4 frames
  18. Format settings, GOP           : M=4, N=23
  19. Codec ID                       : avc1
  20. Codec ID/Info                  : Advanced Video Coding
  21. Duration                       : 2 h 12 min
  22. Bit rate                       : 5 120 kb/s
  23. Width                          : 1 920 pixels
  24. Height                         : 1 080 pixels
  25. Display aspect ratio           : 16:9
  26. Frame rate mode                : Constant
  27. Frame rate                     : 23.976 (24000/1001) FPS
  28. Color space                    : YUV
  29. Chroma subsampling             : 4:2:0
  30. Bit depth                      : 8 bits
  31. Scan type                      : Progressive
  32. Bits/(Pixel*Frame)             : 0.103
  33. Stream size                    : 4.72 GiB (94%)
  34. Writing library                : x264 core 148 r2768 d32d7bf
  35. Encoding settings              : cabac=1 / ref=3 / deblock=1:0:0 / analyse=0x3:0x113 / me=hex / subme=8 / psy=1 / psy_rd=1.00:0.00 / mixed_ref=1 / me_range=16 / chroma_me=1 / trellis=2 / 8x8dct=1 / cqm=0 / deadzone=21,11 / fast_pskip=1 / chroma_qp_offset=-2 / threads=24 / lookahead_threads=4 / sliced_threads=0 / nr=0 / decimate=1 / interlaced=0 / bluray_compat=0 / stitchable=1 / constrained_intra=0 / bframes=3 / b_pyramid=2 / b_adapt=1 / b_bias=0 / direct=3 / weightb=1 / open_gop=0 / weightp=2 / keyint=23 / keyint_min=12 / scenecut=40 / intra_refresh=0 / rc_lookahead=23 / rc=2pass / mbtree=1 / bitrate=5120 / ratetol=1.0 / qcomp=0.60 / qpmin=0 / qpmax=69 / qpstep=4 / cplxblur=20.0 / qblur=0.5 / ip_ratio=1.40 / aq=1:1.00
  36. Codec configuration box        : avcC

  37. Audio
  38. ID                             : 2
  39. Format                         : AAC LC
  40. Format/Info                    : Advanced Audio Codec Low Complexity
  41. Codec ID                       : mp4a-40-2
  42. Duration                       : 2 h 12 min
  43. Bit rate mode                  : Constant
  44. Bit rate                       : 320 kb/s
  45. Channel(s)                     : 2 channels
  46. Channel layout                 : L R
  47. Sampling rate                  : 48.0 kHz
  48. Frame rate                     : 46.875 FPS (1024 SPF)
  49. Compression mode               : Lossy
  50. Stream size                    : 302 MiB (6%)
  51. Default                        : Yes
  52. Alternate group                : 1

复制代码

寄生虫  PARASITE.2019.1080p.FHDRip.H264.AAC3.png
寄生虫  PARASITE.2019.1080p.FHDRip.H264.AAC4.png
寄生虫  PARASITE.2019.1080p.FHDRip.H264.AAC5.png
寄生虫  PARASITE.2019.1080p.FHDRip.H264.AAC6.png
寄生虫  PARASITE.2019.1080p.FHDRip.H264.AAC7.png

###云售付费内容,发布后显示效果###

[Maiyehuo.com]寄生虫 PARASITE.2019.1080p.FHDRip.H264.AAC.torrent (28.76 KB, 售价: 20 金币)
13370134244 发表于 2019-9-7 16:33 | 显示全部楼层
下不了啊。。。显示“包含违规内容,无法下载啊”迅雷
 楼主| 朱古力小酥酥 发表于 2019-9-7 23:07 | 显示全部楼层
13370134244 发表于 2019-9-7 16:33
下不了啊。。。显示“包含违规内容,无法下载啊”迅雷

换下载软件就可以了
2503184014 发表于 2019-10-2 22:48 | 显示全部楼层
骗子网站,举报中......
 楼主| 朱古力小酥酥 发表于 2019-10-2 23:11 | 显示全部楼层
2503184014 发表于 2019-10-2 22:48
骗子网站,举报中......

你好,站内的所有种子都是亲自测试过的,是可以下载,此种子是我们站内自己在做种的。非常确定是可以下载的,所有bt种子在用迅雷下载的时候会提示无法下载等信息,因为版权问题,迅雷无法离线bt种子,所以当用迅雷无法下载是,建议你用ut,或比特精灵,或115挂机下载
关闭

站长通知 上一条 /2 下一条

手机版|Archiver|小黑屋| Maiyehuo |网站地图

Copyright © 2001-2013 Comsenz Inc.   All Rights Reserved.

Powered by Discuz! X3.3

快速回复 返回顶部 返回列表