买野货

搜索
收起左侧

[1080p资源] 303中队 Squadron.303.2018.1080p.BluRay.REMUX.AVC.DTS-HD.MA.5.1电影

[复制链接]
朱古力小酥酥 发表于 2019-5-16 11:25 | 显示全部楼层 |阅读模式
5.jpg
导演: Denis Delic
编剧: Chris Burdza / Arkady Fiedler
主演: Cara Theobold / Andrew Woodall / Anna Prus
类型: 剧情 / 战争
制片国家/地区: 波蘭
语言: 英语
上映日期: 2018-08-31(波蘭)
片长: 99分钟
又名: Squadron 303

303中队影视信息:
  1. Video
  2. ID : 1
  3. Format : AVC
  4. Format/Info : Advanced Video Codec
  5. Format profile : High@L4.1
  6. Format settings : CABAC / 4 Ref Frames
  7. Format settings, CABAC : Yes
  8. Format settings, ReFrames : 4 frames
  9. Codec ID : V_MPEG4/ISO/AVC
  10. Duration : 1 h 43 min
  11. Bit rate mode : Variable
  12. Bit rate : 29.4 Mb/s
  13. Maximum bit rate : 36.0 Mb/s
  14. Width : 1 920 pixels
  15. Height : 1 080 pixels
  16. Display aspect ratio : 16:9
  17. Frame rate mode : Constant
  18. Frame rate : 24.000 FPS
  19. Color space : YUV
  20. Chroma subsampling : 4:2:0
  21. Bit depth : 8 bits
  22. Scan type : Progressive
  23. Bits/(Pixel*Frame) : 0.591
  24. Stream size : 21.3 GiB (83%)
  25. Title : Squadron.303.2018.1080p.BluRay.REMUX.AVC.DTS-HD.MA.5.1-FGT
  26. Language : English
  27. Default : No
  28. Forced : No

  29. Audio #1
  30. ID : 2
  31. Format : DTS XLL
  32. Format/Info : Digital Theater Systems
  33. Commercial name : DTS-HD Master Audio
  34. Codec ID : A_DTS
  35. Duration : 1 h 43 min
  36. Bit rate mode : Variable
  37. Bit rate : 3 732 kb/s
  38. Channel(s) : 6 channels
  39. Channel layout : C L R Ls Rs LFE
  40. Sampling rate : 48.0 kHz
  41. Frame rate : 93.750 FPS (512 SPF)
  42. Bit depth : 24 bits
  43. Compression mode : Lossless
  44. Stream size : 2.70 GiB (11%)
  45. Title : Squadron.303.2018.1080p.BluRay.REMUX.AVC.DTS-HD.MA.5.1-FGT
  46. Language : English
  47. Default : Yes
  48. Forced : No
复制代码


303中队影视评分:
303中队.png

303中队简介:
影片讲述了二战中备受瞩目的战斗机中队的故事。中队的大多数士兵来自波兰,他们参加了不列颠之战,与英国皇家空军并肩作战,奋勇对抗纳粹的袭击。战斗中303中队击落的敌机数量达到了其他中队的三倍之多。

303中队影视图片:
4.jpg

3.jpg

2.jpg

303中队资源下载【25.66GB】:
Squadron.303.2018.1080p.BluRay.REMUX.AVC.DTS-HD.MA.5.1-FGT.torrent (64.7 KB, 售价: 5 金币)
关闭

站长通知 上一条 /2 下一条

手机版|Archiver|小黑屋| Maiyehuo |网站地图

Copyright © 2001-2013 Comsenz Inc.   All Rights Reserved.

Powered by Discuz! X3.3

快速回复 返回顶部 返回列表