买野货

搜索
收起左侧

[1080p资源] 忌日快乐2 Happy.Death.Day.2U.2019.1080p.WEB-DL.DD5.1.H264-FGT电影

[复制链接]
朱古力小酥酥 发表于 2019-4-25 13:28 | 显示全部楼层 |阅读模式
本帖最后由 朱古力小酥酥 于 2019-7-26 15:24 编辑

忌日快乐2.jpg
导演: 克里斯托弗·兰登
编剧: 克里斯托弗·兰登
主演: 杰西卡·罗德 / 伊瑟尔·布罗萨德 / 露比·莫迪恩 / 苏拉·沙玛 / 史蒂夫·齐西斯 / 瑞秋·马休斯 / 查尔斯·艾特肯 / 莎拉·亚金 / 凯莱布·斯比尔亚兹 / 吉吉·埃内塔 / 劳拉·克利夫顿 / 温迪·米克洛维奇 / 凯勒布·拿奎恩 / 肯尼斯·以色列 / 泰内娅·因崔亚戈 / 布莱恩·克恩 / 川川 / 卡瑞尔拉·史密斯 / 罗布·梅洛 / 林赛·G·史密斯 / 飞·武 / 莎拉·贝纳尼 / 杰奎琳·哈里斯·马瑟恩 / 西尔维娅·格雷丝·克里姆 / 拉姆齐·安德森
类型: 悬疑 / 惊悚 / 恐怖
制片国家/地区: 美国
语言: 英语
上映日期: 2019-02-13(美国)
片长: 100分钟
又名: 死亡无限2次LOOP(港) / 祝你忌日快乐(台) / Happy Death Day 2 / Happy Death Day to You

Blumhouse制片公司即将开始进行恐怖片《忌日快乐2》的制作工作。影片将于5月10日开始拍摄,预计2019年在影院上映,上映日期尚未正式公布。
  第一部中的女主杰西卡·罗瑟和男主伊瑟尔·布罗萨德已确认回归,继续扮演自己的角色。新演员包括苏拉·沙玛(《少年派的奇幻漂流》),据报道他将扮演Samar Ghosh,这个角色被描述为一个喜欢编程的技术宅男。女演员Sarah Yarkin(《美国恐怖故事》),将饰演假小子Dre Morgan,也是一个科学达人,并且是Ghosh的犯罪同伙。
  关于续集内容暂时还没有过多透露,只知道会延续第一部的结局发展,并且同样涉及到时间循环的问题。

忌日快乐2 Happy.Death.Day.2U.2019.1080p.WEB-DL.DD5.1.H264-FGT电影信息

  1. Video
  2. ID : 1
  3. Format : AVC
  4. Format/Info : Advanced Video Codec
  5. Format profile : High@L4
  6. Format settings : CABAC / 5 Ref Frames
  7. Format settings, CABAC : Yes
  8. Format settings, ReFrames : 5 frames
  9. Codec ID : V_MPEG4/ISO/AVC
  10. Duration : 1 h 39 min
  11. Bit rate : 4 535 kb/s
  12. Width : 1 920 pixels
  13. Height : 800 pixels
  14. Display aspect ratio : 2.40:1
  15. Frame rate mode : Constant
  16. Frame rate : 23.976 (24000/1001) FPS
  17. Color space : YUV
  18. Chroma subsampling : 4:2:0
  19. Bit depth : 8 bits
  20. Scan type : Progressive
  21. Bits/(Pixel*Frame) : 0.123
  22. Stream size : 3.17 GiB (92%)
  23. Title : Happy.Death.Day.2U.2019.1080p.WEB-DL.DD5.1.H264-FGT
  24. Language : English
  25. Default : Yes
  26. Forced : No
  27. Color range : Limited
  28. Color primaries : BT.709
  29. Transfer characteristics : BT.709
  30. Matrix coefficients : BT.709

  31. Audio
  32. ID : 2
  33. Format : AC-3
  34. Format/Info : Audio Coding 3
  35. Commercial name : Dolby Digital
  36. Codec ID : A_AC3
  37. Duration : 1 h 39 min
  38. Bit rate mode : Constant
  39. Bit rate : 384 kb/s
  40. Channel(s) : 6 channels
  41. Channel layout : L R C LFE Ls Rs
  42. Sampling rate : 48.0 kHz
  43. Frame rate : 31.250 FPS (1536 SPF)
  44. Bit depth : 16 bits
  45. Compression mode : Lossy
  46. Stream size : 275 MiB (8%)
  47. Title : Happy.Death.Day.2U.2019.1080p.WEB-DL.DD5.1.H264-FGT
  48. Language : English
  49. Service kind : Complete Main
  50. Default : Yes
  51. Forced : No

  52. Text
  53. ID : 3
  54. Format : UTF-8
  55. Codec ID : S_TEXT/UTF8
  56. Codec ID/Info : UTF-8 Plain Text
  57. Duration : 1 h 33 min
  58. Bit rate : 63 b/s
  59. Count of elements : 1604
  60. Stream size : 43.8 KiB (0%)
  61. Language : English
  62. Default : Yes
  63. Forced : No

  64. Menu
  65. 00:00:00.000 : en:1
  66. 00:07:43.254 : en:2
  67. 00:16:02.086 : en:3
  68. 00:21:17.067 : en:4
  69. 00:24:22.460 : en:5
  70. 00:28:45.890 : en:6
  71. 00:32:35.661 : en:7
  72. 00:37:16.817 : en:8
  73. 00:42:03.812 : en:9
  74. 00:45:36.107 : en:10
  75. 00:48:38.664 : en:11
  76. 00:54:28.347 : en:12
  77. 01:00:37.340 : en:13
  78. 01:06:25.312 : en:14
  79. 01:13:20.518 : en:15
  80. 01:17:48.077 : en:16
  81. 01:21:32.760 : en:17
  82. 01:27:37.082 : en:18
  83. 01:33:03.992 : en:19
  84. 01:35:06.698 : en:20
复制代码


忌日快乐2 Happy.Death.Day.2U.2019.1080p.WEB-DL.DD5.1.H264-FGT电影下载

忌日快乐2 Happy.Death.Day.2U.2019.1080p.BluRay.AVC.DTS-HD.MA.5.1【27.93GB】
忌日快乐2 Happy.Death.Day.2U.2019.1080p.BluRay.AVC.DTS-HD.MA.5.1-FGT.torrent (87.2 KB, 售价: 20 金币)
handsomek 发表于 2019-4-27 15:58 | 显示全部楼层
想下啊,但是都要金币啊!
handsomek 发表于 2019-4-27 15:58 | 显示全部楼层
想下啊,但是都要金币啊!!
关闭

站长通知 上一条 /2 下一条

手机版|Archiver|小黑屋| Maiyehuo |网站地图

Copyright © 2001-2013 Comsenz Inc.   All Rights Reserved.

Powered by Discuz! X3.3

快速回复 返回顶部 返回列表