买野货

搜索
收起左侧

[4K 美剧] 眼镜蛇 第1-2季4k Cobra.Kai.S02.2160p.RED.WEBRip.AAC5.1.VP9-AJP69电视剧

[复制链接]
朱古力小酥酥 发表于 2019-4-24 18:26 | 显示全部楼层 |阅读模式
p2553280467.jpg
类型: 喜剧 / 动作
制片国家/地区: 美国
语言: 英语
首播: 2019-04-25(美国)
季数: 2
集数: 10
单集片长: 30分钟

眼镜蛇 第二季 Cobra.Kai.S02.2160p.RED.WEBRip.AAC5.1.VP9-AJP69电视剧信息
  • Video
  • ID : 1
  • Format : VP9
  • Codec ID : V_VP9
  • Duration : 30 min 45 s
  • Bit rate : 17.9 Mb/s
  • Width : 3 840 pixels
  • Height : 2 160 pixels
  • Display aspect ratio : 16:9
  • Frame rate mode : Constant
  • Frame rate : 23.976 (24000/1001) FPS
  • Color space : YUV
  • Bits/(Pixel*Frame) : 0.090
  • Stream size : 3.84 GiB (98%)
  • Language : English
  • Default : Yes
  • Forced : No
  • Color range : Limited
  • Color primaries : BT.709
  • Transfer characteristics : BT.709
  • Matrix coefficients : BT.709
  • Audio
  • ID : 2
  • Format : AAC LC
  • Format/Info : Advanced Audio Codec Low Complexity
  • Codec ID : A_AAC-2
  • Duration : 30 min 45 s
  • Bit rate : 384 kb/s
  • Channel(s) : 6 channels
  • Channel layout : C L R Ls Rs LFE
  • Sampling rate : 48.0 kHz
  • Frame rate : 46.875 FPS (1024 SPF)
  • Compression mode : Lossy
  • Stream size : 85.0 MiB (2%)
  • Language : English
  • Default : Yes
  • Forced : No
  • Text #1
  • ID : 3
  • Format : UTF-8
  • Codec ID : S_TEXT/UTF8
  • Codec ID/Info : UTF-8 Plain Text
  • Duration : 30 min 27 s
  • Bit rate : 67 b/s
  • Count of elements : 546
  • Stream size : 15.1 KiB (0%)
  • Language : English
  • Default : No
  • Forced : No
  • Text #2
  • ID : 4
  • Format : UTF-8
  • Codec ID : S_TEXT/UTF8
  • Codec ID/Info : UTF-8 Plain Text
  • Duration : 28 min 56 s
  • Bit rate : 60 b/s
  • Count of elements : 428
  • Stream size : 12.7 KiB (0%)
  • Language : German
  • Default : No
  • Forced : No

眼镜蛇4k Cobra.Kai.S02.2160p.RED.WEBRip.AAC5.1.VP9-AJP69电视剧下载
眼镜蛇 第一季 Cobra.Kai.S02.2160p.RED.WEBRip.AAC5.1.VP9-AJP69【24.23GB】
Cobra.Kai.S01.2160p.RED.WEBRip.AAC5.1.VP9-BTW[rartv].torrent (62 KB, 售价: 10 金币)
°彼此共存° 发表于 2019-4-24 18:31 | 显示全部楼层
锄禾日当午,发帖真辛苦。谁知坛中餐,帖帖皆辛苦!
岁月之沉淀 发表于 2019-4-24 19:05 来自 移动版  | 显示全部楼层
嘘,低调。
背后的温柔 发表于 2019-4-26 16:10 | 显示全部楼层
确实不错,顶先

手机版|Archiver|小黑屋| Maiyehuo |网站地图

Copyright © 2001-2013 Comsenz Inc.   All Rights Reserved.

Powered by Discuz! X3.3

快速回复 返回顶部 返回列表