买野货

搜索
收起左侧

[4K 美剧] 雷蒙·斯尼奇的不幸历险 第一季4K

[复制链接]
朱古力小酥酥 发表于 2019-4-23 17:31 | 显示全部楼层 |阅读模式
雷蒙·斯尼奇的不幸历险 第一季4k.jpg
导演: 巴里·索南菲尔德
编剧: 马克·哈迪斯 / 丹尼尔·汉德勒
主演: 尼尔·帕特里克·哈里斯 / 帕特里克·沃伯顿 / 玛丽娜·维丝曼 / 马修·卡德罗普 / 阿西夫·曼德维 / K·托德·弗里曼 / 威尔·阿奈特 / 路易斯·海因斯
类型: 剧情 / 奇幻 / 冒险
制片国家/地区: 美国
语言: 英语
首播: 2017-01-13(美国)
季数:
集数: 8
单集片长: 50分钟
又名: 波特莱尔的冒险(台) / Lemony Snicket's A Series of Unfortunate Event

维奥莱特(玛丽娜·维丝曼 Malina Weissman 饰)、克劳斯(路易斯·哈恩斯 Louis Hynes 饰)和桑尼是情同手足的三姐弟,维奥莱特满脑袋都是古灵精怪的奇思妙想,克劳斯饱读诗书能够记得他看过的一切东西,桑尼虽然年幼,但拥有四颗雪白结实的门牙,战斗力不可小觑。
  一场意外让三姐弟成为了无家可归的孤儿,为了替自己找到一个可靠的新家,三人踏上了旅途。远房亲戚奥拉夫伯爵(尼尔·帕特里克·哈里斯 Neil Patrick Harris 饰)收养了三人,但很快,维奥莱特便发现,奥拉夫真正想要的,其实是他们的父亲留下的巨额遗产。为此,邪恶的奥拉夫甚至一手策划了一场车祸,企图将三个孩子置于死地。
本帖最后由 kjhftuier 于 2019-4-23 17:10 编辑


雷蒙·斯尼奇的不幸历险 第一季4K Lemony.Snickets.A.Series.of.Unfortunate.Events.S01.2160p.NF.WEBRip.DD5.1.x264-TrollUHD电视剧信息

Video
ID : 1
Format : AVC
Format/Info : Advanced Video Codec
Format profile : High@L5.1
Format settings : CABAC / 5 Ref Frames
Format settings, CABAC : Yes
Format settings, ReFrames : 5 frames
Codec ID : V_MPEG4/ISO/AVC
Duration : 1 h 3 min
Bit rate : 36.1 Mb/s
Width : 3 840 pixels
Height : 1 920 pixels
Display aspect ratio : 2.000
Frame rate mode : Constant
Frame rate : 24.000 FPS
Color space : YUV
Chroma subsampling : 4:2:0
Bit depth : 8 bits
Scan type : Progressive
Bits/(Pixel*Frame) : 0.204
Stream size : 16.0 GiB (99%)
Writing library : x264 core 148 r2638 7599210
Encoding settings : cabac=1 / ref=5 / deblock=1:-3:-3 / analyse=0x3:0x133 / me=umh / subme=10 / psy=1 / psy_rd=1.00:0.00 / mixed_ref=1 / me_range=48 / chroma_me=1 / trellis=2 / 8x8dct=1 / cqm=0 / deadzone=21,11 / fast_pskip=1 / chroma_qp_offset=-2 / threads=24 / lookahead_threads=4 / sliced_threads=0 / nr=0 / decimate=0 / interlaced=0 / bluray_compat=0 / constrained_intra=0 / bframes=8 / b_pyramid=2 / b_adapt=2 / b_bias=0 / direct=3 / weightb=1 / open_gop=0 / weightp=2 / keyint=240 / keyint_min=24 / scenecut=40 / intra_refresh=0 / rc_lookahead=60 / rc=crf / mbtree=1 / crf=17.0 / qcomp=0.70 / qpmin=0 / qpmax=69 / qpstep=4 / vbv_maxrate=300000 / vbv_bufsize=300000 / crf_max=0.0 / nal_hrd=none / filler=0 / ip_ratio=1.40 / aq=1:0.70
Default : Yes
Forced : No

Audio
ID : 2
Format : AC-3
Format/Info : Audio Coding 3
Commercial name : Dolby Digital
Codec ID : A_AC3
Duration : 1 h 3 min
Bit rate mode : Constant
Bit rate : 384 kb/s
Channel(s) : 6 channels
Channel layout : L R C LFE Ls Rs
Sampling rate : 48.0 kHz
Frame rate : 31.250 FPS (1536 SPF)
Bit depth : 16 bits
Compression mode : Lossy
Stream size : 174 MiB (1%)
Language : English
Service kind : Complete Main
Default : Yes
Forced : No

Text #1
ID : 3
Format : UTF-8
Codec ID : S_TEXT/UTF8
Codec ID/Info : UTF-8 Plain Text
Duration : 59 min 59 s
Bit rate : 88 b/s
Count of elements : 986
Stream size : 38.9 KiB (0%)
Title : English
Language : English
Default : No
Forced : No
复制代码


雷蒙·斯尼奇的不幸历险 第一季4K Lemony.Snickets.A.Series.of.Unfortunate.Events.S01.2160p.NF.WEBRip.DD5.1.x264-TrollUHD电视剧下载

雷蒙·斯尼奇的不幸历险 第一季4K Lemony.Snickets.A.Series.of.Unfortunate.Events.S01.2160p.NF.WEBRip.DD5.1.x264-TrollUHD【107.53GB】
Lemony.Snickets.A.Series.of.Unfortunate.Events.S01.2160p.NF.WEBRip.DD5.1.x264-Tr.torrent (270.23 KB, 售价: 10 金币)
凸逼娚勃丸 发表于 2019-4-23 17:38 | 显示全部楼层
大人,此事必有蹊跷!
体会生活 发表于 2019-4-24 02:14 | 显示全部楼层
在撸一遍。。。
我长大了 发表于 2019-4-25 04:54 | 显示全部楼层
非常好,顶一下

手机版|Archiver|小黑屋| Maiyehuo |网站地图

Copyright © 2001-2013 Comsenz Inc.   All Rights Reserved.

Powered by Discuz! X3.3

快速回复 返回顶部 返回列表