买野货

搜索
收起左侧

[1080p资源] 倾听男人心 What.Men.Want.2019.1080p.WEB-DL.DD5.1.H264-FGT电影

[复制链接]
朱古力小酥酥 发表于 2019-4-23 16:33 | 显示全部楼层 |阅读模式
倾听男人心.jpg

导演: 亚当·山克曼
编剧: 蒂娜·戈登·奇兹姆 / 皮特·海克 / 亚历克斯·格利高里 / 贾斯·沃特斯 / 乔什·史密斯 / 凯茜·尤斯帕 / 黛安·德雷克
主演: 塔拉吉·P·汉森 / 克莉丝汀·莱德洛 / 乔什·布雷纳 / 凯南·鲁兹 / 贾斯廷·阿尔瓦雷斯 / 克里斯·维塔斯凯 / 马克思·格林菲尔德 / 布莱恩·伯茨沃斯 / 考萨尔·穆罕默德 / 理查德·朗德特依 / 阿尔迪斯·霍吉 / 德方塔·弗里曼 / 崔西·摩根 / 沙恩·保罗·麦吉 / 丽萨·莱斯利 / 温迪·麦克伦登-考威 / 塔玛拉·琼斯 / 埃里卡·巴杜 / 查尔斯·格林 / 马克·库班 / 沙奎尔·奥尼尔 / 格兰特·希尔
类型: 喜剧 / 爱情 / 奇幻
制片国家/地区: 美国
语言: 英语
上映日期: 2019-02-08(美国)
片长: 117分钟
又名: 偷听男人心

该片是“性转”梅尔·吉布森主演的2000年热卖喜剧《偷听女人心》。原版讲述一位大男子主义者意外获得能力,能听到女人的心声,从而在生活和工作上获益,最终赢得心上人芳心。新版主角则是一位女性体育经纪人,由于性别上的劣势,她在工作上屡屡被男同事挫败。结果她意外获得倾听男人心声的能力,也因此在事业上一帆风顺,甚至有机会签下NBA的明日巨星。

倾听男人心 What.Men.Want.2019.1080p.WEB-DL.DD5.1.H264-FGT电影信息

  1. Video
  2. ID : 1
  3. Format : AVC
  4. Format/Info : Advanced Video Codec
  5. Format profile : High@L4
  6. Format settings : CABAC / 5 Ref Frames
  7. Format settings, CABAC : Yes
  8. Format settings, ReFrames : 5 frames
  9. Codec ID : V_MPEG4/ISO/AVC
  10. Duration : 1 h 57 min
  11. Bit rate : 4 536 kb/s
  12. Width : 1 912 pixels
  13. Height : 796 pixels
  14. Display aspect ratio : 2.40:1
  15. Frame rate mode : Constant
  16. Frame rate : 23.976 (24000/1001) FPS
  17. Color space : YUV
  18. Chroma subsampling : 4:2:0
  19. Bit depth : 8 bits
  20. Scan type : Progressive
  21. Bits/(Pixel*Frame) : 0.124
  22. Stream size : 3.72 GiB (92%)
  23. Title : What.Men.Want.2019.1080p.WEB-DL.DD5.1.H264-FGT
  24. Language : English
  25. Default : Yes
  26. Forced : No
  27. Color range : Limited
  28. Color primaries : BT.709
  29. Transfer characteristics : BT.709
  30. Matrix coefficients : BT.709

  31. Audio
  32. ID : 2
  33. Format : AC-3
  34. Format/Info : Audio Coding 3
  35. Commercial name : Dolby Digital
  36. Codec ID : A_AC3
  37. Duration : 1 h 57 min
  38. Bit rate mode : Constant
  39. Bit rate : 384 kb/s
  40. Channel(s) : 6 channels
  41. Channel layout : L R C LFE Ls Rs
  42. Sampling rate : 48.0 kHz
  43. Frame rate : 31.250 FPS (1536 SPF)
  44. Bit depth : 16 bits
  45. Compression mode : Lossy
  46. Stream size : 322 MiB (8%)
  47. Title : What.Men.Want.2019.1080p.WEB-DL.DD5.1.H264-FGT
  48. Language : English
  49. Service kind : Complete Main
  50. Default : Yes
  51. Forced : No

  52. Menu
  53. 00:00:00.000 : en:Chapter 1
  54. 00:11:27.000 : en:Chapter 2
  55. 00:22:02.000 : en:Chapter 3
  56. 00:31:03.000 : en:Chapter 4
  57. 00:43:08.000 : en:Chapter 5
  58. 00:51:38.000 : en:Chapter 6
  59. 01:01:20.000 : en:Chapter 7
  60. 01:10:46.000 : en:Chapter 8
  61. 01:18:54.000 : en:Chapter 9
  62. 01:28:43.000 : en:Chapter 10
  63. 01:38:52.000 : en:Chapter 11
  64. 01:47:42.000 : en:Chapter 12
复制代码


倾听男人心 What.Men.Want.2019.1080p.WEB-DL.DD5.1.H264-FGT电影下载

倾听男人心 What.Men.Want.2019.1080p.WEB-DL.DD5.1.H264-FGT【4.04GB】
What.Men.Want.2019.1080p.WEB-DL.DD5.1.H264-FGT.torrent (40.9 KB, 售价: 10 金币)
关闭

站长通知 上一条 /2 下一条

手机版|Archiver|小黑屋| Maiyehuo |网站地图

Copyright © 2001-2013 Comsenz Inc.   All Rights Reserved.

Powered by Discuz! X3.3

快速回复 返回顶部 返回列表