买野货

搜索
收起左侧

[1080p资源] 神童 The.Prodigy.2019.1080p.WEB-DL.DD5.1.H264-FGT电影

[复制链接]
朱古力小酥酥 发表于 2019-4-23 16:29 | 显示全部楼层 |阅读模式
神童.jpg
导演: 尼古拉斯·麦卡锡
编剧: 杰夫·布勒
主演: 泰勒·席林 / 布列塔尼·艾伦 / 杰克逊·罗伯特·斯科特 / 科鲁姆·费奥瑞 / 彼得·穆尼 / 奥妮克·阿德莉 / 艾丽莎·莫勒切里 / 宝拉·布德罗 / 保罗·福托 / 戴维·科赫史密斯 / 马克·史派克 / 迈克尔·戴森
类型: 惊悚 / 恐怖
制片国家/地区: 香港 / 美国
语言: 英语
上映日期: 2019-02-08(美国)
片长: 92分钟
又名: 鬼裔(台) / 后裔 / Descendant

一位年轻母亲因她8岁的儿子表现出令人不安的行为,认为一些超自然的东西可能会对其产生影响。

神童 The.Prodigy.2019.1080p.WEB-DL.DD5.1.H264-FGT电影信息

  1. Video
  2. ID : 1
  3. Format : AVC
  4. Format/Info : Advanced Video Codec
  5. Format profile : High@L4
  6. Format settings : CABAC / 5 Ref Frames
  7. Format settings, CABAC : Yes
  8. Format settings, ReFrames : 5 frames
  9. Codec ID : V_MPEG4/ISO/AVC
  10. Duration : 1 h 31 min
  11. Bit rate : 4 579 kb/s
  12. Width : 1 912 pixels
  13. Height : 796 pixels
  14. Display aspect ratio : 2.40:1
  15. Frame rate mode : Constant
  16. Frame rate : 23.976 (23976/1000) FPS
  17. Color space : YUV
  18. Chroma subsampling : 4:2:0
  19. Bit depth : 8 bits
  20. Scan type : Progressive
  21. Bits/(Pixel*Frame) : 0.125
  22. Stream size : 2.94 GiB (92%)
  23. Title : The.Prodigy.2019.1080p.WEB-DL.DD5.1.H264-FGT
  24. Language : English
  25. Default : Yes
  26. Forced : No
  27. Color range : Limited
  28. Color primaries : BT.709
  29. Transfer characteristics : BT.709
  30. Matrix coefficients : BT.709

  31. Audio
  32. ID : 2
  33. Format : AC-3
  34. Format/Info : Audio Coding 3
  35. Commercial name : Dolby Digital
  36. Codec ID : A_AC3
  37. Duration : 1 h 31 min
  38. Bit rate mode : Constant
  39. Bit rate : 384 kb/s
  40. Channel(s) : 6 channels
  41. Channel layout : L R C LFE Ls Rs
  42. Sampling rate : 48.0 kHz
  43. Frame rate : 31.250 FPS (1536 SPF)
  44. Bit depth : 16 bits
  45. Compression mode : Lossy
  46. Stream size : 252 MiB (8%)
  47. Title : The.Prodigy.2019.1080p.WEB-DL.DD5.1.H264-FGT
  48. Language : English
  49. Service kind : Complete Main
  50. Default : Yes
  51. Forced : No

  52. Menu
  53. 00:00:00.000 : en:1
  54. 00:10:06.000 : en:2
  55. 00:20:02.000 : en:3
  56. 00:33:59.000 : en:4
  57. 00:40:22.000 : en:5
  58. 00:50:15.000 : en:6
  59. 01:01:36.000 : en:7
  60. 01:09:53.000 : en:8
  61. 01:21:23.000 : en:9
复制代码


神童 The.Prodigy.2019.1080p.WEB-DL.DD5.1.H264-FGT电影下载

神童 The.Prodigy.2019.1080p.WEB-DL.DD5.1.H264-FGT【3.18GB】
The.Prodigy.2019.1080p.WEB-DL.DD5.1.H264-FGT.torrent (32.34 KB, 售价: 10 金币)

手机版|Archiver|小黑屋| Maiyehuo |网站地图

Copyright © 2001-2013 Comsenz Inc.   All Rights Reserved.

Powered by Discuz! X3.3

快速回复 返回顶部 返回列表