买野货

搜索
收起左侧

[1080p资源] 北极 Arctic.2018.1080p.BluRay.x264.DTS-HDC

[复制链接]
朱古力小酥酥 发表于 2019-4-22 17:36 | 显示全部楼层 |阅读模式
北极.jpg
导演: 乔·佩那
编剧: 乔·佩那 / Ryan Morrison
主演: 麦斯·米科尔森 / Maria Thelma Smáradóttir
类型: 惊悚
制片国家/地区: 冰岛
语言: 英语
上映日期: 2018-05-10(戛纳电影节) / 2019-02-01(美国)
片长: 97分钟

北极 Arctic.2018.1080p.BluRay.x264.DTS-HDC信息

  1. Video
  2. ID : 1
  3. Format : AVC
  4. Format/Info : Advanced Video Codec
  5. Format profile : High@L4.1
  6. Format settings : CABAC / 5 Ref Frames
  7. Format settings, CABAC : Yes
  8. Format settings, ReFrames : 5 frames
  9. Codec ID : V_MPEG4/ISO/AVC
  10. Duration : 1 h 38 min
  11. Bit rate : 12.5 Mb/s
  12. Width : 1 920 pixels
  13. Height : 804 pixels
  14. Display aspect ratio : 2.40:1
  15. Frame rate mode : Constant
  16. Frame rate : 23.976 (24000/1001) FPS
  17. Color space : YUV
  18. Chroma subsampling : 4:2:0
  19. Bit depth : 8 bits
  20. Scan type : Progressive
  21. Bits/(Pixel*Frame) : 0.338
  22. Stream size : 8.57 GiB (89%)
  23. Writing library : x264 core 148 r2665kMod a01e339
  24. Encoding settings : cabac=1 / ref=5 / deblock=1:-3:-3 / analyse=0x3:0x133 / me=umh / subme=11 / psy=1 / fade_compensate=0.00 / psy_rd=0.85:0.00 / mixed_ref=1 / me_range=48 / chroma_me=1 / trellis=2 / 8x8dct=1 / cqm=0 / deadzone=21,11 / fast_pskip=0 / chroma_qp_offset=-2 / threads=24 / lookahead_threads=4 / sliced_threads=0 / nr=0 / decimate=0 / interlaced=0 / bluray_compat=0 / constrained_intra=0 / fgo=0 / bframes=8 / b_pyramid=2 / b_adapt=2 / b_bias=0 / direct=3 / weightb=1 / open_gop=0 / weightp=2 / keyint=240 / keyint_min=24 / scenecut=40 / intra_refresh=0 / rc=2pass / mbtree=0 / bitrate=12500 / ratetol=1.0 / qcomp=0.70 / qpmin=0 / qpmax=69 / qpstep=4 / cplxblur=20.0 / qblur=0.5 / ip_ratio=1.20 / pb_ratio=1.20 / aq=3:0.80
  25. Default : Yes
  26. Forced : No

  27. Audio
  28. ID : 2
  29. Format : DTS
  30. Format/Info : Digital Theater Systems
  31. Codec ID : A_DTS
  32. Duration : 1 h 38 min
  33. Bit rate mode : Constant
  34. Bit rate : 1 509 kb/s
  35. Channel(s) : 6 channels
  36. Channel layout : C L R Ls Rs LFE
  37. Sampling rate : 48.0 kHz
  38. Frame rate : 93.750 FPS (512 SPF)
  39. Bit depth : 24 bits
  40. Compression mode : Lossy
  41. Stream size : 1.03 GiB (11%)
  42. Language : English
  43. Default : Yes
  44. Forced : No

  45. Text #1
  46. ID : 3
  47. Format : UTF-8
  48. Codec ID : S_TEXT/UTF8
  49. Codec ID/Info : UTF-8 Plain Text
  50. Duration : 1 h 25 min
  51. Bit rate : 2 b/s
  52. Count of elements : 127
  53. Stream size : 1.87 KiB (0%)
  54. Language : English
  55. Default : Yes
  56. Forced : No

  57. Text #2
  58. ID : 4
  59. Format : UTF-8
  60. Codec ID : S_TEXT/UTF8
  61. Codec ID/Info : UTF-8 Plain Text
  62. Duration : 1 h 31 min
  63. Bit rate : 6 b/s
  64. Count of elements : 312
  65. Stream size : 4.54 KiB (0%)
  66. Title : SDH
  67. Language : English
  68. Default : No
  69. Forced : No

  70. Menu
  71. 00:00:00.000 : en:00:00:00.000
  72. 00:05:09.893 : en:00:05:09.893
  73. 00:09:31.112 : en:00:09:31.112
  74. 00:14:27.033 : en:00:14:27.033
  75. 00:20:48.289 : en:00:20:48.289
  76. 00:23:42.254 : en:00:23:42.254
  77. 00:30:56.229 : en:00:30:56.229
  78. 00:37:04.639 : en:00:37:04.639
  79. 00:42:31.632 : en:00:42:31.632
  80. 00:48:00.127 : en:00:48:00.127
  81. 00:50:30.819 : en:00:50:30.819
  82. 00:56:30.095 : en:00:56:30.095
  83. 01:02:47.430 : en:01:02:47.430
  84. 01:06:19.684 : en:01:06:19.684
  85. 01:10:20.258 : en:01:10:20.258
  86. 01:13:42.501 : en:01:13:42.501
  87. 01:18:53.270 : en:01:18:53.270
  88. 01:22:54.928 : en:01:22:54.928
  89. 01:26:28.725 : en:01:26:28.725
  90. 01:32:47.645 : en:01:32:47.645
复制代码


北极 Arctic.2018.1080p.BluRay.x264.DTS-HDC下载

北极 Arctic.2018.1080p.BluRay.x264.DTS-HDC【9.60GB】

Arctic.2018.1080p.BluRay.x264.DTS-HDC.torrent (48.6 KB, 售价: 10 金币)
关闭

站长通知 上一条 /2 下一条

手机版|Archiver|小黑屋| Maiyehuo |网站地图

Copyright © 2001-2013 Comsenz Inc.   All Rights Reserved.

Powered by Discuz! X3.3

快速回复 返回顶部 返回列表