买野货

搜索
收起左侧

[1080p资源] 权力的游戏第八季二集 Game.of.Thrones.S08E02.1080p.AMZN.WEBRip.DDP5.1.x264电影

[复制链接]
朱古力小酥酥 发表于 2019-4-22 14:22 | 显示全部楼层 |阅读模式
权力的游戏 第八季.jpg
导演: 米格尔·萨普什尼克 / 大卫·努特尔 / 戴维·贝尼奥夫 / D·B·威斯
编剧: 戴维·贝尼奥夫 / D·B·威斯 / 乔治·马丁
主演: 艾米莉亚·克拉克 / 基特·哈灵顿 / 彼特·丁拉基 / 苏菲·特纳 / 麦茜·威廉姆斯 / 琳娜·海蒂 / 伊萨克·亨普斯特德-怀特 / 尼古拉·科斯特-瓦尔道 / 约翰·C·布莱德利 / 阿尔菲·艾伦 / 皮鲁·埃斯贝克 / 格温多兰·克里斯蒂 / 利亚姆·坎宁安 / 娜塔莉·伊曼纽尔 / 康勒斯·希尔 / 罗伊·麦克凯恩 / 杰罗姆·弗林 / 克里斯托弗·海维尤 / 约瑟夫·戴浦西 / 雅各布·安德森 / 伊恩·格雷 / 安东·莱瑟 / 理查德·多默 / 杰玛·韦兰 / 本·克朗普顿 / 哈弗波·朱利尔斯·比昂森 / 丹尼尔·波特曼 / 鲁珀特·范西塔特 / 贝拉·拉姆齐
类型: 剧情 / 奇幻 / 冒险
制片国家/地区: 美国
语言: 英语
首播: 2019-04-14(美国)
季数:
集数: 6
单集片长: 60分钟(E1-E2) / 80分钟(E3-E6)
又名: 权游8 / Game of Thrones: The Final Season

HBO剧集《权力的游戏》第八季将于2019年4月14日播出,本季共6集。
  故事发展至第八季,重返临冬城的琼恩·雪诺(基特·哈灵顿 Kit Harington 饰)在布兰·史塔克(伊萨克·亨普斯特德-怀特 Isaac Hempstead-Wright 饰)口中得知了自己身世的秘密,让他与丹妮莉丝·塔格利安(艾米莉亚·克拉克 Emilia Clarke 饰)的关系蒙上了一层冰霜。
  詹姆·兰尼斯特(尼古拉·科斯特-瓦尔道 Nikolaj Coster-Waldau 饰)试图召集河间地驻军北伐异鬼,却发现艾德慕·徒利(托比亚斯·门基斯 Tobias Menzies 饰)已经包围了奔流城。
  攸伦·葛雷乔伊(皮鲁·埃斯贝克 Pilou Asbæ 饰)将黄金团带至君临获取了瑟曦(琳娜·海蒂 Lena Headey 饰)的信任,而实际上,他已经与无面者贾昆·赫加尔(汤姆·拉斯齐哈 Tom Wlaschiha 饰)私下达成了秘密协议。

权力的游戏第八季二集  Game.of.Thrones.S08E02.1080p.AMZN.WEBRip.DDP5.1.x264电影信息
  1. Video
  2. ID : 1
  3. Format : AVC
  4. Format/Info : Advanced Video Codec
  5. Format profile : High@L4
  6. Format settings : CABAC / 4 Ref Frames
  7. Format settings, CABAC : Yes
  8. Format settings, ReFrames : 4 frames
  9. Codec ID : V_MPEG4/ISO/AVC
  10. Duration : 1 h 6 min
  11. Bit rate mode : Constant
  12. Bit rate : 6 806 kb/s
  13. Nominal bit rate : 10 000 kb/s
  14. Width : 1 920 pixels
  15. Height : 1 080 pixels
  16. Display aspect ratio : 16:9
  17. Frame rate mode : Constant
  18. Frame rate : 23.976 (24000/1001) FPS
  19. Color space : YUV
  20. Chroma subsampling : 4:2:0
  21. Bit depth : 8 bits
  22. Scan type : Progressive
  23. Bits/(Pixel*Frame) : 0.137
  24. Stream size : 3.16 GiB (91%)
  25. Language : English
  26. Default : Yes
  27. Forced : No
  28. Color range : Limited
  29. Color primaries : BT.709
  30. Transfer characteristics : BT.709
  31. Matrix coefficients : BT.709

  32. Audio
  33. ID : 2
  34. Format : E-AC-3
  35. Format/Info : Enhanced AC-3
  36. Commercial name : Dolby Digital Plus
  37. Codec ID : A_EAC3
  38. Duration : 1 h 6 min
  39. Bit rate mode : Constant
  40. Bit rate : 640 kb/s
  41. Channel(s) : 6 channels
  42. Channel layout : L R C LFE Ls Rs
  43. Sampling rate : 48.0 kHz
  44. Frame rate : 31.250 FPS (1536 SPF)
  45. Compression mode : Lossy
  46. Delay relative to video : 20 ms
  47. Stream size : 304 MiB (9%)
  48. Language : English
  49. Service kind : Complete Main
  50. Default : Yes
  51. Forced : No

  52. Text
  53. ID : 3
  54. Format : UTF-8
  55. Codec ID : S_TEXT/UTF8
  56. Codec ID/Info : UTF-8 Plain Text
  57. Duration : 1 h 6 min
  58. Bit rate : 62 b/s
  59. Count of elements : 1025
  60. Stream size : 30.2 KiB (0%)
  61. Language : English
  62. Default : No
  63. Forced : No
复制代码


权力的游戏第八季二集  Game.of.Thrones.S08E02.1080p.AMZN.WEBRip.DDP5.1.x264【3.04】

[HDC].Integrity.2019.1080p.BluRay.x264-WiKi.torrent (45.79 KB, 售价: 20 金币)
diy97 发表于 2019-4-27 22:00 | 显示全部楼层
删减了的吗?
xjkrl 发表于 2019-4-29 20:46 | 显示全部楼层

谢谢楼主分享
ice007 发表于 2019-5-21 21:28 | 显示全部楼层
感谢楼主分享,
关闭

站长通知 上一条 /2 下一条

手机版|Archiver|小黑屋| Maiyehuo |网站地图

Copyright © 2001-2013 Comsenz Inc.   All Rights Reserved.

Powered by Discuz! X3.3

快速回复 返回顶部 返回列表