买野货

搜索
收起左侧

[1080p资源] 生在幼子 Dear.Etranger.2017.JAPANESE.1080p.BluRay.H264.AAC-VXT电影

[复制链接]
南方孤雁 发表于 2019-4-20 18:36 | 显示全部楼层 |阅读模式
生在幼子.jpg
导演: 三岛有纪子
编剧: 荒井晴彦 / 重松清
主演: 浅野忠信 / 田中丽奈 / 南沙良 / 镰田莱树 / 新井美羽 / 更多...
类型: 剧情 / 家庭
官方网站: osanago-movie.com
制片国家/地区: 日本
语言: 日语
上映日期: 2017-04-29(全州国际电影节) / 2017-08-26(日本)
片长: 127分钟
又名: 亲爱的外人(台) / 亲爱的局外人 / 孩子为了我们而诞生 / 最亲近的陌生人 / 我们诞下幼子 / Dear Etranger

电影改编自直木奖获奖作家重松清的同名小说,由《玻璃芦苇》的导演三岛有纪子执导。故事讲述了带着孩子的离婚男人信(浅野忠信饰)和第二任妻子奈苗(田中丽奈饰)及她此前所生的两个女儿过着平凡而幸福的生活。当奈苗怀孕后,奈苗的大女儿透露想见自己亲生父亲沢田(宫藤官九郎饰),可正是这位亲生父亲曾对奈苗家暴导致他们离婚,奈苗和信都极度反对,大女儿竭力反抗,这让信感到沮丧,甚至对奈苗的腹中胎儿也产生否定感。

生在幼子 Dear.Etranger.2017.JAPANESE.1080p.BluRay.H264.AAC-VXT电影信息

  1. Video
  2. ID : 1
  3. Format : AVC
  4. Format/Info : Advanced Video Codec
  5. Format profile : High@L4.1
  6. Format settings : CABAC / 5 Ref Frames
  7. Format settings, CABAC : Yes
  8. Format settings, ReFrames : 5 frames
  9. Codec ID : V_MPEG4/ISO/AVC
  10. Duration : 2 h 7 min
  11. Bit rate : 20.0 Mb/s
  12. Width : 1 920 pixels
  13. Height : 802 pixels
  14. Display aspect ratio : 2.40:1
  15. Frame rate mode : Constant
  16. Frame rate : 23.976 (24000/1001) FPS
  17. Color space : YUV
  18. Chroma subsampling : 4:2:0
  19. Bit depth : 8 bits
  20. Scan type : Progressive
  21. Bits/(Pixel*Frame) : 0.542
  22. Stream size : 17.8 GiB (93%)
  23. Title : x264_L4.1 @ 20,000 Kbps (pass2)
  24. Writing library : x264 core 129 r2245+704+36 8e61944 tMod+MixAQ [8-bit@4:2:0 X86_64]
  25. Encoding settings : cabac=1 / ref=5 / deblock=1:-3:-3 / analyse=0x3:0x133 / me=umh / subme=11 / psy=1 / fade_compensate=0.00 / psy_rd=1.10:0.10 / mixed_ref=1 / me_range=64 / chroma_me=1 / trellis=2 / 8x8dct=1 / cqm=0 / deadzone=21,11 / fast_pskip=0 / chroma_qp_offset=-3 / threads=12 / lookahead_threads=2 / sliced_threads=0 / nr=0 / decimate=1 / interlaced=0 / bluray_compat=0 / constrained_intra=0 / fgo=0 / bframes=10 / b_pyramid=2 / b_adapt=2 / b_bias=0 / direct=3 / weightb=1 / open_gop=0 / weightp=2 / keyint=250 / keyint_min=23 / scenecut=40 / intra_refresh=0 / rc=2pass / mbtree=0 / bitrate=20000 / ratetol=1.0 / qcomp=0.70 / qpmin=0 / qpmax=69 / qpstep=4 / cplxblur=20.0 / qblur=0.5 / ip_ratio=1.40 / pb_ratio=1.30 / aq=1 / aq-strength=0.75 / aq-sensitivity=10.00 / aq-ifactor=1.00 / aq-pfactor=1.00 / aq-bfactor=1.00 / aq2=0
  26. Language : Japanese
  27. Default : Yes
  28. Forced : No

  29. Audio
  30. ID : 2
  31. Format : DTS
  32. Format/Info : Digital Theater Systems
  33. Codec ID : A_DTS
  34. Duration : 2 h 7 min
  35. Bit rate mode : Constant
  36. Bit rate : 1 509 kb/s
  37. Channel(s) : 6 channels
  38. Channel layout : C L R Ls Rs LFE
  39. Sampling rate : 48.0 kHz
  40. Frame rate : 93.750 FPS (512 SPF)
  41. Bit depth : 24 bits
  42. Compression mode : Lossy
  43. Stream size : 1.34 GiB (7%)
  44. Title : Japanese DTS 5.1 @ 1,509 Kbps
  45. Language : Japanese
  46. Default : Yes
  47. Forced : No

  48. Text
  49. ID : 3
  50. Format : UTF-8
  51. Codec ID : S_TEXT/UTF8
  52. Codec ID/Info : UTF-8 Plain Text
  53. Duration : 2 h 2 min
  54. Bit rate : 35 b/s
  55. Count of elements : 1415
  56. Stream size : 31.7 KiB (0%)
  57. Language : English
  58. Default : Yes
  59. Forced : Yes

  60. Menu
  61. 00:00:00.000 : en:00:00:00.000
  62. 00:11:16.175 : en:00:11:16.175
  63. 00:20:11.419 : en:00:20:11.419
  64. 00:34:43.957 : en:00:34:43.957
  65. 00:51:10.651 : en:00:51:10.651
  66. 01:00:16.279 : en:01:00:16.279
  67. 01:15:57.386 : en:01:15:57.386
  68. 01:28:27.969 : en:01:28:27.969
  69. 01:42:57.630 : en:01:42:57.630
  70. 01:57:20.033 : en:01:57:20.033
复制代码



生在幼子 Dear.Etranger.2017.JAPANESE.1080p.BluRay.H264.AAC-VXT电影下载

生在幼子 Dear.Etranger.2017.JAPANESE.1080p.BluRay.x264.DTS-WiKi【19.12GB】
Dear.Etranger.2017.JAPANESE.1080p.BluRay.x264.DTS-WiKi.torrent (96.13 KB, 售价: 10 金币)

手机版|Archiver|小黑屋| Maiyehuo |网站地图

Copyright © 2001-2013 Comsenz Inc.   All Rights Reserved.

Powered by Discuz! X3.3

快速回复 返回顶部 返回列表