买野货

搜索
收起左侧

[1080p资源] 达格纳姆 Dagenham.2018.1080p.WEB-DL.DD5.1.H264-FGT电影

[复制链接]
南方孤雁 发表于 2019-4-20 18:28 | 显示全部楼层 |阅读模式
达格纳姆.jpg
导演: Jo Morris
编剧: Jo Morris
主演: Doraly Rosa / Bradley Doughty / Nikolaos Brahimllari / Dean Roberts / Ryan Winsley / Chris Leaney / 莉莉·纽马克 / Tim Bowie / Lloyd Sparsi / Gemma Paget / Jodie Wolf / Aaron Gelkoff / Barbara D'Alterio / Holly McFarlane / Veronica Jean Trickett
类型: 惊悚
制片国家/地区: 英国
语言: 英语
上映日期: 2019-04-19(英国)
片长: 1h 46m 19s

达格纳姆 Dagenham.2018.1080p.WEB-DL.DD5.1.H264-FGT电影信息

  1. Video
  2. ID : 1
  3. Format : AVC
  4. Format/Info : Advanced Video Codec
  5. Format profile : High@L4
  6. Format settings : CABAC / 5 Ref Frames
  7. Format settings, CABAC : Yes
  8. Format settings, ReFrames : 5 frames
  9. Codec ID : V_MPEG4/ISO/AVC
  10. Duration : 1 h 46 min
  11. Bit rate : 4 571 kb/s
  12. Width : 1 920 pixels
  13. Height : 808 pixels
  14. Display aspect ratio : 2.40:1
  15. Frame rate mode : Constant
  16. Frame rate : 24.000 FPS
  17. Color space : YUV
  18. Chroma subsampling : 4:2:0
  19. Bit depth : 8 bits
  20. Scan type : Progressive
  21. Bits/(Pixel*Frame) : 0.123
  22. Stream size : 3.39 GiB (92%)
  23. Title : Dagenham.2018.1080p.WEB-DL.DD5.1.H264-FGT
  24. Language : English
  25. Default : Yes
  26. Forced : No
  27. Color range : Limited
  28. Color primaries : BT.709
  29. Transfer characteristics : BT.709
  30. Matrix coefficients : BT.709

  31. Audio
  32. ID : 2
  33. Format : AC-3
  34. Format/Info : Audio Coding 3
  35. Commercial name : Dolby Digital
  36. Codec ID : A_AC3
  37. Duration : 1 h 46 min
  38. Bit rate mode : Constant
  39. Bit rate : 384 kb/s
  40. Channel(s) : 2 channels
  41. Channel layout : L R
  42. Sampling rate : 48.0 kHz
  43. Frame rate : 31.250 FPS (1536 SPF)
  44. Bit depth : 16 bits
  45. Compression mode : Lossy
  46. Stream size : 292 MiB (8%)
  47. Title : Dagenham.2018.1080p.WEB-DL.DD5.1.H264-FGT
  48. Language : English
  49. Service kind : Complete Main
  50. Default : Yes
  51. Forced : No

  52. Text
  53. ID : 3
  54. Format : UTF-8
  55. Codec ID : S_TEXT/UTF8
  56. Codec ID/Info : UTF-8 Plain Text
  57. Duration : 1 h 46 min
  58. Bit rate : 66 b/s
  59. Count of elements : 1609
  60. Stream size : 51.4 KiB (0%)
  61. Language : English
  62. Default : Yes
  63. Forced : No

  64. Menu
  65. 00:00:00.000 : en:1
  66. 00:17:16.618 : en:2
  67. 00:33:52.238 : en:3
  68. 00:51:02.350 : en:4
  69. 01:08:32.732 : en:5
  70. 01:25:42.595 : en:6
  71. 01:42:47.703 : en:7
复制代码


达格纳姆 Dagenham.2018.1080p.WEB-DL.DD5.1.H264-FGT电影下载

达格纳姆 Dagenham.2018.1080p.WEB-DL.DD5.1.H264-FGT【3.68gb】
Dagenham.2018.1080p.WEB-DL.DD5.1.H264-FGT.torrent (37.32 KB, 售价: 10 金币)

手机版|Archiver|小黑屋| Maiyehuo |网站地图

Copyright © 2001-2013 Comsenz Inc.   All Rights Reserved.

Powered by Discuz! X3.3

快速回复 返回顶部 返回列表