买野货

搜索
收起左侧

[1080p资源] 伦敦往事 Once.Upon.a.Time.in.London.2019.1080p.AMZN.WEBRip.DDP5.1.x264-NTG电影

[复制链接]
南方孤雁 发表于 2019-4-20 18:19 | 显示全部楼层 |阅读模式
p2553747023.jpg

导演: 西蒙·鲁梅莱
编剧: Will Gilbey / 西蒙·鲁梅莱 / 特里·斯通
主演: 霍莉·厄尔 / 杰夫·贝尔 / 多米尼克·基汀
类型: 犯罪
制片国家/地区: 英国
语言: 英语
上映日期: 2017-11-06(英国)
片长: 111分钟

  Dramatising the violent reign of two of London's most notorious gangsters, Billy Hill (Leo Gregory) and Jack 'Spot' Comer (Terry Stone), ONCE UPON A TIME IN LONDON charts the legendary rise and fall of a nationwide criminal empire that lasted until the mid-fifties and which paved the way for the notorious Kray Twins and The Richardsons.

伦敦往事 Once.Upon.a.Time.in.London.2019.1080p.AMZN.WEBRip.DDP5.1.x264-NTG电影信息
  1. Video
  2. ID : 1
  3. Format : AVC
  4. Format/Info : Advanced Video Codec
  5. Format profile : High@L4
  6. Format settings : CABAC / 4 Ref Frames
  7. Format settings, CABAC : Yes
  8. Format settings, ReFrames : 4 frames
  9. Codec ID : V_MPEG4/ISO/AVC
  10. Duration : 1 h 51 min
  11. Bit rate mode : Constant
  12. Bit rate : 4 230 kb/s
  13. Nominal bit rate : 10 000 kb/s
  14. Width : 1 920 pixels
  15. Height : 1 080 pixels
  16. Display aspect ratio : 16:9
  17. Frame rate mode : Constant
  18. Frame rate : 24.000 FPS
  19. Color space : YUV
  20. Chroma subsampling : 4:2:0
  21. Bit depth : 8 bits
  22. Scan type : Progressive
  23. Bits/(Pixel*Frame) : 0.085
  24. Stream size : 3.28 GiB (87%)
  25. Default : Yes
  26. Forced : No
  27. Color range : Limited
  28. Color primaries : BT.709
  29. Transfer characteristics : BT.709
  30. Matrix coefficients : BT.709

  31. Audio
  32. ID : 2
  33. Format : E-AC-3
  34. Format/Info : Enhanced AC-3
  35. Commercial name : Dolby Digital Plus
  36. Codec ID : A_EAC3
  37. Duration : 1 h 51 min
  38. Bit rate mode : Constant
  39. Bit rate : 640 kb/s
  40. Channel(s) : 6 channels
  41. Channel layout : L R C LFE Ls Rs
  42. Sampling rate : 48.0 kHz
  43. Frame rate : 31.250 FPS (1536 SPF)
  44. Compression mode : Lossy
  45. Stream size : 509 MiB (13%)
  46. Language : English
  47. Service kind : Complete Main
  48. Default : Yes
  49. Forced : No
复制代码


伦敦往事 Once.Upon.a.Time.in.London.2019.1080p.AMZN.WEBRip.DDP5.1.x264-NTG电影下载

伦敦往事 Once.Upon.a.Time.in.London.2019.1080p.AMZN.WEBRip.DDP5.1.x264-NTG【3.78gb】
Once.Upon.a.Time.in.London.2019.1080p.AMZN.WEBRip.DDP5.1.x264-NTG-.torrent (38.36 KB, 售价: 10 金币)
关闭

站长通知 上一条 /2 下一条

手机版|Archiver|小黑屋| Maiyehuo |网站地图

Copyright © 2001-2013 Comsenz Inc.   All Rights Reserved.

Powered by Discuz! X3.3

快速回复 返回顶部 返回列表