买野货

搜索
收起左侧

[1080p资源] 只有我的 Only.Mine.2019.1080p.WEB-DL.DD5.1.H264-FGT

[复制链接]
南方孤雁 发表于 2019-4-20 18:09 | 显示全部楼层 |阅读模式
175310lqcj24av4x2g4bgg.jpg
导演: 马特杨
演员: Amber Midthunder,Brett Zimmerman,Chris Browning

简介:
被一个蔑视的情人折磨并留下来死去,一个女人发现自己内心的力量可以恢复并对她的施虐者进行报复。

只有我的 Only.Mine.2019.1080p.WEB-DL.DD5.1.H264-FGT电影信息

  1. Video
  2. ID : 1
  3. Format : AVC
  4. Format/Info : Advanced Video Codec
  5. Format profile : High@L4
  6. Format settings : CABAC / 4 Ref Frames
  7. Format settings, CABAC : Yes
  8. Format settings, ReFrames : 4 frames
  9. Codec ID : V_MPEG4/ISO/AVC
  10. Duration : 1 h 27 min
  11. Bit rate mode : Variable
  12. Bit rate : 6 709 kb/s
  13. Maximum bit rate : 20.0 Mb/s
  14. Width : 1 920 pixels
  15. Height : 1 080 pixels
  16. Display aspect ratio : 16:9
  17. Frame rate mode : Constant
  18. Frame rate : 23.976 (24000/1001) FPS
  19. Color space : YUV
  20. Chroma subsampling : 4:2:0
  21. Bit depth : 8 bits
  22. Scan type : Progressive
  23. Bits/(Pixel*Frame) : 0.135
  24. Stream size : 4.11 GiB (91%)
  25. Writing library : x264 core 148 r2715 7e75228
  26. Encoding settings : cabac=1 / ref=4 / deblock=1:0:0 / analyse=0x3:0x111 / me=umh / subme=10 / psy=1 / psy_rd=1.00:0.00 / mixed_ref=1 / me_range=120 / chroma_me=1 / trellis=2 / 8x8dct=1 / cqm=0 / deadzone=21,11 / fast_pskip=1 / chroma_qp_offset=-2 / threads=6 / lookahead_threads=1 / sliced_threads=0 / nr=0 / decimate=1 / interlaced=0 / bluray_compat=0 / stitchable=1 / constrained_intra=0 / bframes=16 / b_pyramid=2 / b_adapt=2 / b_bias=0 / direct=3 / weightb=1 / open_gop=0 / weightp=2 / keyint=240 / keyint_min=121 / scenecut=0 / intra_refresh=0 / rc_lookahead=240 / rc=crf / mbtree=1 / crf=20.0 / qcomp=0.50 / qpmin=6 / qpmax=51 / qpstep=4 / vbv_maxrate=20000 / vbv_bufsize=25000 / crf_max=0.0 / nal_hrd=vbr / filler=0 / ip_ratio=1.40 / aq=1:0.80
  27. Language : English
  28. Default : Yes
  29. Forced : No

  30. Audio
  31. ID : 2
  32. Format : E-AC-3
  33. Format/Info : Enhanced AC-3
  34. Commercial name : Dolby Digital Plus
  35. Codec ID : A_EAC3
  36. Duration : 1 h 27 min
  37. Bit rate mode : Constant
  38. Bit rate : 640 kb/s
  39. Channel(s) : 6 channels
  40. Channel layout : L R C LFE Ls Rs
  41. Sampling rate : 48.0 kHz
  42. Frame rate : 31.250 FPS (1536 SPF)
  43. Compression mode : Lossy
  44. Stream size : 401 MiB (9%)
  45. Title : English [Original]
  46. Language : English
  47. Service kind : Complete Main
  48. Default : Yes
  49. Forced : No
复制代码


只有我的 Only.Mine.2019.1080p.WEB-DL.DD5.1.H264-FGT【3.44】
Only.Mine.2019.1080p.WEB-DL.DD5.1.H264-FGT.torrent (34.9 KB, 售价: 10 金币)

Only.Mine.2019.1080p.WEB.X264-INFLATE.torrent

180.64 KB,

售价: 10 金币  [记录]  [购买]

手机版|Archiver|小黑屋| Maiyehuo |网站地图

Copyright © 2001-2013 Comsenz Inc.   All Rights Reserved.

Powered by Discuz! X3.3

快速回复 返回顶部 返回列表