买野货

搜索
收起左侧

[1080p资源] 大人物 Someone.Great.2019.1080p.NF.WEBRip.DDP5.1.x264-NTG电影

[复制链接]
admin 发表于 2019-4-19 18:00 | 显示全部楼层 |阅读模式
大人物.jpg

导演: 詹妮弗·罗宾逊
编剧: 詹妮弗·罗宾逊
主演: 吉娜·罗德里格兹 / 布兰特妮·斯诺 / 罗莎里奥·道森 / 勒凯斯·斯坦菲尔德 / 费斯·洛根 / DeWanda Wise / 彼得·瓦克 / 托马斯·科帕切 / Ben Sidell / Salvatore DiSanto
类型: 喜剧 / 爱情
制片国家/地区: 美国
语言: 英语
上映日期: 2019-04-19(美国)
又名: 忘情今夜

剧情讲述一个女人和她的两个闺蜜去到纽约展开冒险,在经历了艰难的分手期后,她开始在全国各地寻找理想的工作。
  罗德里格兹同保罗·费格、Jessie Henderson等共同制片,预计4月开拍。
  这将是罗德里格兹与Netflix的再次合作,她与娜塔莉·波特曼、奥斯卡·伊萨克、詹妮弗·杰森·李等主演的科幻片《湮灭》将于下月登陆Netflix。

大人物 Someone.Great.2019.1080p.NF.WEBRip.DDP5.1.x264-NTG电影信息

  1. Video
  2. ID : 1
  3. Format : AVC
  4. Format/Info : Advanced Video Codec
  5. Format profile : Main@L4
  6. Format settings : CABAC / 3 Ref Frames
  7. Format settings, CABAC : Yes
  8. Format settings, ReFrames : 3 frames
  9. Codec ID : V_MPEG4/ISO/AVC
  10. Duration : 1 h 32 min
  11. Bit rate mode : Variable
  12. Bit rate : 4 420 kb/s
  13. Maximum bit rate : 6 630 kb/s
  14. Width : 1 920 pixels
  15. Height : 1 080 pixels
  16. Display aspect ratio : 16:9
  17. Frame rate mode : Constant
  18. Frame rate : 23.976 (24000/1001) FPS
  19. Color space : YUV
  20. Chroma subsampling : 4:2:0
  21. Bit depth : 8 bits
  22. Scan type : Progressive
  23. Bits/(Pixel*Frame) : 0.089
  24. Stream size : 2.82 GiB (87%)
  25. Writing library : x264 core 148 r2715 7e75228
  26. Encoding settings : cabac=1 / ref=3 / deblock=1:0:0 / analyse=0x1:0x111 / me=umh / subme=10 / psy=1 / psy_rd=1.00:0.00 / mixed_ref=1 / me_range=24 / chroma_me=1 / trellis=2 / 8x8dct=0 / cqm=0 / deadzone=21,11 / fast_pskip=1 / chroma_qp_offset=-2 / threads=8 / lookahead_threads=1 / sliced_threads=0 / nr=0 / decimate=1 / interlaced=0 / bluray_compat=0 / stitchable=1 / constrained_intra=0 / bframes=2 / b_pyramid=0 / b_adapt=2 / b_bias=0 / direct=3 / weightb=1 / open_gop=0 / weightp=2 / keyint=48 / keyint_min=25 / scenecut=0 / intra_refresh=0 / rc_lookahead=48 / rc=2pass / mbtree=1 / bitrate=4420 / ratetol=1.0 / qcomp=0.50 / qpmin=6 / qpmax=51 / qpstep=4 / cplxblur=20.0 / qblur=0.5 / vbv_maxrate=6630 / vbv_bufsize=8840 / nal_hrd=vbr / filler=0 / ip_ratio=1.40 / aq=1:1.00
  27. Default : Yes
  28. Forced : No

  29. Audio
  30. ID : 2
  31. Format : E-AC-3
  32. Format/Info : Enhanced AC-3
  33. Commercial name : Dolby Digital Plus
  34. Codec ID : A_EAC3
  35. Duration : 1 h 32 min
  36. Bit rate mode : Constant
  37. Bit rate : 640 kb/s
  38. Channel(s) : 6 channels
  39. Channel layout : L R C LFE Ls Rs
  40. Sampling rate : 48.0 kHz
  41. Frame rate : 31.250 FPS (1536 SPF)
  42. Compression mode : Lossy
  43. Stream size : 423 MiB (13%)
  44. Title : English
  45. Language : English
  46. Service kind : Complete Main
  47. Default : Yes
  48. Forced : No

  49. Text #1
  50. ID : 3
  51. Format : UTF-8
  52. Codec ID : S_TEXT/UTF8
  53. Codec ID/Info : UTF-8 Plain Text
  54. Duration : 1 h 30 min
  55. Bit rate : 96 b/s
  56. Count of elements : 1807
  57. Stream size : 63.7 KiB (0%)
  58. Language : English
  59. Default : No
  60. Forced : No

  61. Text #2
  62. ID : 4
  63. Format : UTF-8
  64. Codec ID : S_TEXT/UTF8
  65. Codec ID/Info : UTF-8 Plain Text
  66. Duration : 1 h 30 min
  67. Bit rate : 104 b/s
  68. Count of elements : 1939
  69. Stream size : 69.1 KiB (0%)
  70. Title : SDH
  71. Language : English
  72. Default : No
  73. Forced : No
复制代码


大人物 Someone.Great.2019.1080p.NF.WEBRip.DDP5.1.x264-NTG电影信息下载

大人物 Someone.Great.2019.1080p.NF.WEBRip.DDP5.1.x264-NTG【3.24】
Someone.Great.2019.1080p.NF.WEBRip.DDP5.1.x264-NTG.torrent (32.94 KB, 售价: 5 金币)
关闭

站长通知 上一条 /2 下一条

手机版|Archiver|小黑屋| Maiyehuo |网站地图

Copyright © 2001-2013 Comsenz Inc.   All Rights Reserved.

Powered by Discuz! X3.3

快速回复 返回顶部 返回列表