买野货

搜索
收起左侧

[1080p资源] 老爹的问题 Daddy.Issues.2018.1080p.WEB-DL.DD5.1.H264-FGT电影

[复制链接]
admin 发表于 2019-4-19 17:57 | 显示全部楼层 |阅读模式
老爹的问题.jpg
导演: Amara Cash
编剧: Alex Bloom / Amara Cash
主演: 麦迪森·劳勒 / Montana Manning / 安德鲁·皮菲克
类型: 剧情
制片国家/地区: 美国
语言: 英语
上映日期: 2018-07-14(LA Outfest)
片长: 81分钟

老爹的问题 Daddy.Issues.2018.1080p.WEB-DL.DD5.1.H264-FGT电影信息

  1. Video
  2. ID : 1
  3. Format : AVC
  4. Format/Info : Advanced Video Codec
  5. Format profile : High@L4
  6. Format settings : CABAC / 5 Ref Frames
  7. Format settings, CABAC : Yes
  8. Format settings, ReFrames : 5 frames
  9. Codec ID : V_MPEG4/ISO/AVC
  10. Duration : 1 h 21 min
  11. Bit rate : 4 536 kb/s
  12. Width : 1 920 pixels
  13. Height : 816 pixels
  14. Display aspect ratio : 2.35:1
  15. Frame rate mode : Constant
  16. Frame rate : 23.976 FPS
  17. Color space : YUV
  18. Chroma subsampling : 4:2:0
  19. Bit depth : 8 bits
  20. Scan type : Progressive
  21. Bits/(Pixel*Frame) : 0.121
  22. Stream size : 2.59 GiB (92%)
  23. Title : Daddy.Issues.2018.1080p.WEB-DL.DD5.1.H264-FGT
  24. Language : English
  25. Default : Yes
  26. Forced : No
  27. Color range : Limited
  28. Color primaries : BT.709
  29. Transfer characteristics : BT.709
  30. Matrix coefficients : BT.709

  31. Audio
  32. ID : 2
  33. Format : AC-3
  34. Format/Info : Audio Coding 3
  35. Commercial name : Dolby Digital
  36. Codec ID : A_AC3
  37. Duration : 1 h 21 min
  38. Bit rate mode : Constant
  39. Bit rate : 384 kb/s
  40. Channel(s) : 6 channels
  41. Channel layout : L R C LFE Ls Rs
  42. Sampling rate : 48.0 kHz
  43. Frame rate : 31.250 FPS (1536 SPF)
  44. Bit depth : 16 bits
  45. Compression mode : Lossy
  46. Stream size : 225 MiB (8%)
  47. Title : Daddy.Issues.2018.1080p.WEB-DL.DD5.1.H264-FGT
  48. Language : English
  49. Service kind : Complete Main
  50. Default : Yes
  51. Forced : No

  52. Text
  53. ID : 3
  54. Format : UTF-8
  55. Codec ID : S_TEXT/UTF8
  56. Codec ID/Info : UTF-8 Plain Text
  57. Duration : 1 h 19 min
  58. Bit rate : 61 b/s
  59. Count of elements : 983
  60. Stream size : 35.9 KiB (0%)
  61. Language : English
  62. Default : Yes
  63. Forced : No

  64. Menu
  65. 00:00:00.000 : en:Chapter 1
  66. 00:06:16.376 : en:Chapter 2
  67. 00:14:51.891 : en:Chapter 3
  68. 00:22:03.321 : en:Chapter 4
  69. 00:36:33.189 : en:Chapter 5
  70. 00:46:57.812 : en:Chapter 6
  71. 00:53:24.197 : en:Chapter 7
  72. 01:01:13.666 : en:Chapter 8
  73. 01:10:45.237 : en:Chapter 9
  74. 01:15:52.543 : en:Chapter 10
  75. 01:21:44.973 : en:Chapter 1
复制代码


老爹的问题 Daddy.Issues.2018.1080p.WEB-DL.DD5.1.H264-FGT电影下载

老爹的问题 Daddy.Issues.2018.1080p.WEB-DL.DD5.1.H264-FGT【2.18】
Daddy.Issues.2018.1080p.WEB-DL.DD5.1.H264-FGT.torrent (28.62 KB)

手机版|Archiver|小黑屋| Maiyehuo |网站地图

Copyright © 2001-2013 Comsenz Inc.   All Rights Reserved.

Powered by Discuz! X3.3

快速回复 返回顶部 返回列表