买野货

搜索
收起左侧

[1080p资源] 完美约会对象 The.Perfect.Date.2019.1080p.NF.WEBRip.DDP5.1.x264-NTG电影

[复制链接]
admin 发表于 2019-4-19 12:05 | 显示全部楼层 |阅读模式
完美约会对象.jpg
导演: 克里斯·尼尔森
编剧: 史蒂夫·布卢姆 / Randall Green
主演: 劳拉·马兰洛 / 诺亚·琴蒂内奥 / 卡米拉·门德斯 / 马特·沃尔什 / 乔·克里斯特 / 埃文·卡斯特罗 / 韦恩·佩雷 / 卡丽·拉扎 / 布莱恩·克恩 / 欧迪瑟亚斯·乔治亚迪斯 / Sue-Lynn Ansari / Trina LaFargue
类型: 喜剧 / 爱情
制片国家/地区: 美国
语言: 英语
上映日期: 2019-04-12(美国)
片长: 89分钟
又名: 最佳出租男友(港) / 完美约会 / The Stand-In

布鲁克斯 (诺亚·琴蒂内奥饰) 巧妙地为大学筹集资金,他开发了一款约会应用。在这款应用中,他为你能想象到的每一种情况都扮演着“替身”男友的角色。通过一周中每晚做一个不同的人的旅程,他发现真正的布鲁克斯根本不是他想的那样,令他惊讶的是,他爱上了他梦想中的真正的女孩。

完美约会对象 The.Perfect.Date.2019.1080p.NF.WEBRip.DDP5.1.x264-NTG电影信息

  1. Video
  2. ID : 1
  3. Format : AVC
  4. Format/Info : Advanced Video Codec
  5. Format profile : Main@L4
  6. Format settings : CABAC / 3 Ref Frames
  7. Format settings, CABAC : Yes
  8. Format settings, ReFrames : 3 frames
  9. Codec ID : V_MPEG4/ISO/AVC
  10. Duration : 1 h 30 min
  11. Bit rate mode : Variable
  12. Bit rate : 3 010 kb/s
  13. Maximum bit rate : 4 515 kb/s
  14. Width : 1 920 pixels
  15. Height : 1 080 pixels
  16. Display aspect ratio : 16:9
  17. Frame rate mode : Constant
  18. Frame rate : 23.976 (24000/1001) FPS
  19. Color space : YUV
  20. Chroma subsampling : 4:2:0
  21. Bit depth : 8 bits
  22. Scan type : Progressive
  23. Bits/(Pixel*Frame) : 0.061
  24. Stream size : 1.89 GiB (82%)
  25. Writing library : x264 core 148 r2715 7e75228
  26. Encoding settings : cabac=1 / ref=3 / deblock=1:0:0 / analyse=0x1:0x111 / me=umh / subme=10 / psy=1 / psy_rd=1.00:0.00 / mixed_ref=1 / me_range=24 / chroma_me=1 / trellis=2 / 8x8dct=0 / cqm=0 / deadzone=21,11 / fast_pskip=1 / chroma_qp_offset=-2 / threads=8 / lookahead_threads=1 / sliced_threads=0 / nr=0 / decimate=1 / interlaced=0 / bluray_compat=0 / stitchable=1 / constrained_intra=0 / bframes=2 / b_pyramid=0 / b_adapt=2 / b_bias=0 / direct=3 / weightb=1 / open_gop=0 / weightp=2 / keyint=48 / keyint_min=25 / scenecut=0 / intra_refresh=0 / rc_lookahead=48 / rc=2pass / mbtree=1 / bitrate=3010 / ratetol=1.0 / qcomp=0.50 / qpmin=6 / qpmax=51 / qpstep=4 / cplxblur=20.0 / qblur=0.5 / vbv_maxrate=4515 / vbv_bufsize=6020 / nal_hrd=vbr / filler=0 / ip_ratio=1.40 / aq=1:1.00
  27. Default : Yes
  28. Forced : No

  29. Audio
  30. ID : 2
  31. Format : E-AC-3
  32. Format/Info : Enhanced AC-3
  33. Commercial name : Dolby Digital Plus
  34. Codec ID : A_EAC3
  35. Duration : 1 h 30 min
  36. Bit rate mode : Constant
  37. Bit rate : 640 kb/s
  38. Channel(s) : 6 channels
  39. Channel layout : L R C LFE Ls Rs
  40. Sampling rate : 48.0 kHz
  41. Frame rate : 31.250 FPS (1536 SPF)
  42. Compression mode : Lossy
  43. Stream size : 415 MiB (18%)
  44. Title : English
  45. Language : English
  46. Service kind : Complete Main
  47. Default : Yes
  48. Forced : No
复制代码


完美约会对象 The.Perfect.Date.2019.1080p.NF.WEBRip.DDP5.1.x264-NTG电影下载

完美约会对象 The.Perfect.Date.2019.1080p.NF.WEBRip.DDP5.1.x264-NTG【2.30GB】
The.Perfect.Date.2019.1080p.NF.WEBRip.DDP5.1.x264-NTG.torrent (23.5 KB, 售价: 10 金币)

手机版|Archiver|小黑屋| Maiyehuo |网站地图

Copyright © 2001-2013 Comsenz Inc.   All Rights Reserved.

Powered by Discuz! X3.3

快速回复 返回顶部 返回列表