买野货

搜索
收起左侧

[1080p资源] 死寂 The.Silence.2019.1080p.NF.WEBRip.DDP5.1.x264-NTG电影

[复制链接]
admin 发表于 2019-4-19 11:53 | 显示全部楼层 |阅读模式
死寂.jpg

导演: 约翰·R·莱昂耐迪
编剧: 凯莉·凡·戴克 / 肖恩·范·戴克 / 蒂姆·雷柏
主演: 琪兰·席普卡 / 斯坦利·图齐 / 米兰达·奥图 / 约翰·考伯特 / 萨拉·阿伯特 / 凯尔·布瑞特科夫 / 邓普斯·布瑞克 / 比利·麦克莱伦 / 泰勒·拉芙
类型: 恐怖
制片国家/地区: 德国 / 美国
语言: 英语
上映日期: 2019-04-10(美国)
片长: 90分钟
又名: 寂静杀机

斯坦利·图齐出演恐怖惊悚片[死寂](The Silence,暂译),影片由大热恐怖片[安娜贝尔]导演约翰·R·莱昂耐迪执导,琪兰·席普卡此前已确定加盟。影片改编自蒂姆·莱伯恩所著畅销小说,编剧凯莉·范·戴克、肖恩·范·戴克([切尔诺贝利日记])。故事围绕一个失聪少女遭遇一种酷似蝙蝠的恐怖物种展开。

死寂 The.Silence.2019.1080p.NF.WEBRip.DDP5.1.x264-NTG电影信息

  1. Video
  2. ID : 1
  3. Format : AVC
  4. Format/Info : Advanced Video Codec
  5. Format profile : Main@L4
  6. Format settings : CABAC / 3 Ref Frames
  7. Format settings, CABAC : Yes
  8. Format settings, ReFrames : 3 frames
  9. Codec ID : V_MPEG4/ISO/AVC
  10. Duration : 1 h 30 min
  11. Bit rate mode : Variable
  12. Bit rate : 4 640 kb/s
  13. Maximum bit rate : 6 960 kb/s
  14. Width : 1 920 pixels
  15. Height : 1 080 pixels
  16. Display aspect ratio : 16:9
  17. Frame rate mode : Constant
  18. Frame rate : 23.976 (24000/1001) FPS
  19. Color space : YUV
  20. Chroma subsampling : 4:2:0
  21. Bit depth : 8 bits
  22. Scan type : Progressive
  23. Bits/(Pixel*Frame) : 0.093
  24. Stream size : 2.93 GiB (88%)
  25. Writing library : x264 core 148 r2715 7e75228
  26. Encoding settings : cabac=1 / ref=3 / deblock=1:0:0 / analyse=0x1:0x111 / me=umh / subme=10 / psy=1 / psy_rd=1.00:0.00 / mixed_ref=1 / me_range=24 / chroma_me=1 / trellis=2 / 8x8dct=0 / cqm=0 / deadzone=21,11 / fast_pskip=1 / chroma_qp_offset=-2 / threads=8 / lookahead_threads=1 / sliced_threads=0 / nr=0 / decimate=1 / interlaced=0 / bluray_compat=0 / stitchable=1 / constrained_intra=0 / bframes=2 / b_pyramid=0 / b_adapt=2 / b_bias=0 / direct=3 / weightb=1 / open_gop=0 / weightp=2 / keyint=48 / keyint_min=25 / scenecut=0 / intra_refresh=0 / rc_lookahead=48 / rc=2pass / mbtree=1 / bitrate=4640 / ratetol=1.0 / qcomp=0.50 / qpmin=6 / qpmax=51 / qpstep=4 / cplxblur=20.0 / qblur=0.5 / vbv_maxrate=6960 / vbv_bufsize=9280 / nal_hrd=vbr / filler=0 / ip_ratio=1.40 / aq=1:1.00
  27. Default : Yes
  28. Forced : No

  29. Audio
  30. ID : 2
  31. Format : E-AC-3
  32. Format/Info : Enhanced AC-3
  33. Commercial name : Dolby Digital Plus
  34. Codec ID : A_EAC3
  35. Duration : 1 h 30 min
  36. Bit rate mode : Constant
  37. Bit rate : 640 kb/s
  38. Channel(s) : 6 channels
  39. Channel layout : L R C LFE Ls Rs
  40. Sampling rate : 48.0 kHz
  41. Frame rate : 31.250 FPS (1536 SPF)
  42. Compression mode : Lossy
  43. Stream size : 416 MiB (12%)
  44. Title : English
  45. Language : English
  46. Service kind : Complete Main
  47. Default : Yes
  48. Forced : No
复制代码


死寂 The.Silence.2019.1080p.NF.WEBRip.DDP5.1.x264-NTG电影下载

死寂 The.Silence.2019.1080p.NF.WEBRip.DDP5.1.x264-NTG【3.34】
The.Silence.2019.1080p.NF.WEBRip.DDP5.1.x264-NTG.torrent (33.88 KB)

手机版|Archiver|小黑屋| Maiyehuo |网站地图

Copyright © 2001-2013 Comsenz Inc.   All Rights Reserved.

Powered by Discuz! X3.3

快速回复 返回顶部 返回列表