买野货

搜索
收起左侧

[1080p资源] 教授与疯子 The.Professor.and.the.Madman.2019.1080p.WEB-DL.DD5.1.H264电影

[复制链接]
admin 发表于 2019-4-18 11:29 | 显示全部楼层 |阅读模式
教授与疯子.jpg
导演: 法尔哈德·撒夫尼亚
编剧: 法尔哈德·撒夫尼亚 / 约翰·保曼 / 托德·考马尔尼基 / Simon Winchester
主演: 梅尔·吉布森 / 西恩·潘 / 娜塔莉·多默尔 / 詹妮弗·艾莉 / 斯蒂芬·迪兰 / 埃迪·马森 / 艾恩·格拉法德 / 杰瑞米·艾文 / 艾丹·麦克阿德尔 / 布伦丹·帕特里克斯 / 亚当·弗格斯 / 布赖恩·福琼 / 布莱恩·默里 / 戴维·克罗利 / 克里斯托弗·马利基 / 马尔科姆·弗里曼 / 斯蒂夫根恩 / 约翰·莫顿 / Sean Duggan / Joe McKinney / Bryan Quinn
类型: 剧情 / 悬疑 / 惊悚 / 传记
制片国家/地区: 爱尔兰
语言: 英语
上映日期: 2019-03-15(墨西哥) / 2019-03-21(意大利) / 2019-05-10(美国)
片长: 124分钟
又名: 牛津解密(台)

影片故事根据真实事件改编,詹姆斯·默里博士(梅尔·吉布森饰演)领导下的编委会要进行新版本的《牛津英语字典》的编辑,以当时的人力科技水平,完成字典的编撰要一个世纪才能完成,詹姆斯·默里博士开创性的采用了全民参与的方式,让全英使用英语的人一起为字典收集词条定义,并通过寄信的方式发送给编撰组。
  在收集定义过程中,他们发现了一个叫W.C.迈纳(西恩·潘饰演)的医生独自贡献了一万多条引语,这是一个专业语言学者都很难完成的工作量。当编委会决定向他致敬时,一个惊人的事实曝光了:原来迈纳医生,是美国内战时期部队的一个军医,因为患有精神分裂症而犯杀人罪,被禁闭在精神病院,是一个被认为是疯子的人。
  一位教授、一个疯子,人类历史上最早的英语大词典就这样在两个迥然不同的人手中诞生。

教授与疯子 The.Professor.and.the.Madman.2019.1080p.WEB-DL.DD5.1.H264电影信息
  1. Video
  2. ID : 1
  3. Format : AVC
  4. Format/Info : Advanced Video Codec
  5. Format profile : High@L4
  6. Format settings : CABAC / 5 Ref Frames
  7. Format settings, CABAC : Yes
  8. Format settings, ReFrames : 5 frames
  9. Codec ID : V_MPEG4/ISO/AVC
  10. Duration : 2 h 4 min
  11. Bit rate : 4 571 kb/s
  12. Width : 1 912 pixels
  13. Height : 798 pixels
  14. Display aspect ratio : 2.40:1
  15. Frame rate mode : Constant
  16. Frame rate : 24.000 FPS
  17. Color space : YUV
  18. Chroma subsampling : 4:2:0
  19. Bit depth : 8 bits
  20. Scan type : Progressive
  21. Bits/(Pixel*Frame) : 0.125
  22. Stream size : 3.97 GiB (92%)
  23. Title : The.Professor.and.the.Madman.2019.1080p.WEB-DL.DD5.1.H264-FGT
  24. Language : English
  25. Default : Yes
  26. Forced : No
  27. Color range : Limited
  28. Color primaries : BT.709
  29. Transfer characteristics : BT.709
  30. Matrix coefficients : BT.709

  31. Audio
  32. ID : 2
  33. Format : AC-3
  34. Format/Info : Audio Coding 3
  35. Commercial name : Dolby Digital
  36. Codec ID : A_AC3
  37. Duration : 2 h 4 min
  38. Bit rate mode : Constant
  39. Bit rate : 384 kb/s
  40. Channel(s) : 6 channels
  41. Channel layout : L R C LFE Ls Rs
  42. Sampling rate : 48.0 kHz
  43. Frame rate : 31.250 FPS (1536 SPF)
  44. Bit depth : 16 bits
  45. Compression mode : Lossy
  46. Stream size : 342 MiB (8%)
  47. Title : The.Professor.and.the.Madman.2019.1080p.WEB-DL.DD5.1.H264-FGT
  48. Language : English
  49. Service kind : Complete Main
  50. Default : Yes
  51. Forced : No

  52. Menu
  53. 00:00:00.000 : en:1
  54. 00:10:52.000 : en:2
  55. 00:18:58.000 : en:3
  56. 00:27:16.000 : en:4
  57. 00:36:13.000 : en:5
  58. 00:46:23.000 : en:6
  59. 00:57:00.000 : en:7
  60. 01:06:02.000 : en:8
  61. 01:16:08.000 : en:9
  62. 01:26:02.000 : en:10
  63. 01:34:54.000 : en:11
  64. 01:44:13.000 : en:12
  65. 01:53:36.000 : en:13
  66. 01:59:18.000 : en:14
复制代码


教授与疯子 The.Professor.and.the.Madman.2019.1080p.WEB-DL.DD5.1.H264电影下载

教授与疯子 The.Professor.and.the.Madman.2019.1080p.WEB-DL.DD5.1.H264【4.31GB】
The.Professor.and.the.Madman.2019.1080p.WEB-DL.DD5.1.H264-FGT.torrent (43.65 KB, 售价: 10 金币)
关闭

站长通知 上一条 /2 下一条

手机版|Archiver|小黑屋| Maiyehuo |网站地图

Copyright © 2001-2013 Comsenz Inc.   All Rights Reserved.

Powered by Discuz! X3.3

快速回复 返回顶部 返回列表