买野货

搜索
收起左侧

[1080p资源] 乐高大电影2 The.Lego.Movie.2.The.Second.Part.2019.1080p.WEB-DL.DD5.1.H264-FGT

[复制链接]
admin 发表于 2019-4-18 11:26 | 显示全部楼层 |阅读模式
乐高大电影2.jpg
导演: 迈克·米切尔
编剧: 菲尔·罗德 / 克里斯托弗·米勒 / 马修·福格尔
主演: 克里斯·帕拉特 / 伊丽莎白·班克斯 / 威尔·阿奈特 / 蒂凡尼·哈迪斯 / 斯蒂芬妮·比翠丝 / 爱丽森·布里 / 尼克·奥弗曼 / 查理·戴 / 玛娅·鲁道夫 / 威尔·法瑞尔 / 杰登·桑德 / 布鲁克琳·普林斯 / 查宁·塔图姆 / 乔纳·希尔 / 理查德·艾欧阿德 / 本·施瓦茨 / 诺尔·费丁 / 杰森·莫玛 / 寇碧·史莫德斯 / 伊克·巴里霍尔兹 / 拉尔夫·费因斯 / 威尔·福特 / 欧阳万成 / 乔玛·塔科内 / 布鲁斯·威利斯 / 加里·佩顿
类型: 喜剧 / 动画 / 歌舞 / 冒险
制片国家/地区: 美国 / 澳大利亚 / 挪威 / 丹麦
语言: 英语
上映日期: 2019-03-22(中国大陆) / 2019-02-08(美国)
片长: 106分钟
又名: LEGO英雄传2(港) / 乐高玩电影2(台) / The Lego Movie 2

风靡全球的经典动画系列新作《乐高大电影2》爆笑来袭。乐高小人艾米特贱萌回归,抱得美人归的他和女友露西过着甜蜜的生活。但是看似平静的表面其实暗藏阴谋,神秘外星入侵者突然降临,他们的破坏速度远在乐高小人的建造速度之上,艾米特的世界再度危在旦夕。外星入侵者甚至能洞察艾米特等人的每一次行动,困难与挑战直线升级,身手敏捷的露西也难逃厄运,陷入危机。艾米特必须联合一众好友,再次拯救世界。这一次,他们将前往遥远未知的新奇世界,见识更多令人大开眼界的乐高世界,同时也将发现真正的自我。

乐高大电影2 The.Lego.Movie.2.The.Second.Part.2019.1080p.WEB-DL.DD5.1.H264-FGT电影信息

  1. Video
  2. ID : 1
  3. Format : AVC
  4. Format/Info : Advanced Video Codec
  5. Format profile : High@L4
  6. Format settings : CABAC / 5 Ref Frames
  7. Format settings, CABAC : Yes
  8. Format settings, ReFrames : 5 frames
  9. Codec ID : V_MPEG4/ISO/AVC
  10. Duration : 1 h 47 min
  11. Bit rate : 4 503 kb/s
  12. Width : 1 920 pixels
  13. Height : 802 pixels
  14. Display aspect ratio : 2.40:1
  15. Frame rate mode : Constant
  16. Frame rate : 23.976 (24000/1001) FPS
  17. Color space : YUV
  18. Chroma subsampling : 4:2:0
  19. Bit depth : 8 bits
  20. Scan type : Progressive
  21. Bits/(Pixel*Frame) : 0.122
  22. Stream size : 3.37 GiB (92%)
  23. Title : The.Lego.Movie.2.The.Second.Part.2019.1080p.WEB-DL.DD5.1.H264-FGT
  24. Language : English
  25. Default : Yes
  26. Forced : No
  27. Color range : Limited
  28. Color primaries : BT.709
  29. Transfer characteristics : BT.709
  30. Matrix coefficients : BT.709

  31. Audio
  32. ID : 2
  33. Format : AC-3
  34. Format/Info : Audio Coding 3
  35. Commercial name : Dolby Digital
  36. Codec ID : A_AC3
  37. Duration : 1 h 47 min
  38. Bit rate mode : Constant
  39. Bit rate : 384 kb/s
  40. Channel(s) : 6 channels
  41. Channel layout : L R C LFE Ls Rs
  42. Sampling rate : 48.0 kHz
  43. Frame rate : 31.250 FPS (1536 SPF)
  44. Bit depth : 16 bits
  45. Compression mode : Lossy
  46. Stream size : 294 MiB (8%)
  47. Title : The.Lego.Movie.2.The.Second.Part.2019.1080p.WEB-DL.DD5.1.H264-FGT
  48. Language : English
  49. Service kind : Complete Main
  50. Default : Yes
  51. Forced : No
复制代码


乐高大电影2 The.Lego.Movie.2.The.Second.Part.2019.1080p.WEB-DL.DD5.1.H264-FGT电影下载

乐高大电影2 The.Lego.Movie.2.The.Second.Part.2019.1080p.WEB-DL.DD5.1.H264-FGT【3.66GB】
The.Lego.Movie.2.The.Second.Part.2019.1080p.WEB-DL.DD5.1.H264-FGT.torrent (37.13 KB, 售价: 10 金币)
关闭

站长通知 上一条 /2 下一条

手机版|Archiver|小黑屋| Maiyehuo |网站地图

Copyright © 2001-2013 Comsenz Inc.   All Rights Reserved.

Powered by Discuz! X3.3

快速回复 返回顶部 返回列表