买野货

搜索
收起左侧

[1080p资源] 太空生活 High.Life.2018.1080p.BluRay.X264-AMIABLE电影

[复制链接]
admin 发表于 2019-4-18 11:22 | 显示全部楼层 |阅读模式
太空生活.jpg
导演: 克莱尔·德尼
编剧: 克莱尔·德尼 / 让-波尔·法尔戈 / Geoff Cox / Nick Laird
主演: 罗伯特·帕丁森 / 朱丽叶·比诺什 / 安德雷·本杰明 / 米娅·高斯 / 拉斯·艾丁格 / 阿加塔·布泽克 / 克莱尔·陈 / 伊万·米切尔 / 维克多·班纳杰 / Gloria Obianyo
类型: 剧情 / 科幻
制片国家/地区: 德国 / 法国 / 英国 / 波兰 / 美国
语言: 英语
上映日期: 2018-09-09(多伦多电影节) / 2019-04-12(美国)
片长: 110分钟
又名: 高大人生

《軍中禁戀》法國名導克萊兒丹妮絲首度挑戰科幻題材《黑洞迷情》,便獲得西班牙聖塞巴斯汀影展影評人費比西獎的讚揚。影片邀來演技派男星羅伯派汀森與大滿貫影后茱麗葉畢諾許攜手主演,將太空艙轉換成繁殖人類的星際實驗場,地球上的死囚成為孕育新生命的實驗體,但在浩瀚寂靜的失序太空裡,卻也讓人性徹底沉淪。飾演激進女醫生的茱麗葉畢諾許,完美演繹為了延續人類生命而不顧一切的癡野癲狂,飢渴尺度近年之最。

太空生活 High.Life.2018.1080p.BluRay.X264-AMIABLE电影信息

  1. Video
  2. ID : 1
  3. Format : AVC
  4. Format/Info : Advanced Video Codec
  5. Format profile : High@L4.1
  6. Format settings : CABAC / 4 Ref Frames
  7. Format settings, CABAC : Yes
  8. Format settings, ReFrames : 4 frames
  9. Codec ID : V_MPEG4/ISO/AVC
  10. Duration : 1 h 53 min
  11. Bit rate : 9 564 kb/s
  12. Width : 1 920 pixels
  13. Height : 1 040 pixels
  14. Display aspect ratio : 1.85:1
  15. Frame rate mode : Constant
  16. Frame rate : 23.976 (24000/1001) FPS
  17. Color space : YUV
  18. Chroma subsampling : 4:2:0
  19. Bit depth : 8 bits
  20. Scan type : Progressive
  21. Bits/(Pixel*Frame) : 0.200
  22. Stream size : 7.55 GiB (86%)
  23. Writing library : x264 core 157 r2970 5493be8
  24. Encoding settings : cabac=1 / ref=4 / deblock=1:-3:-3 / analyse=0x3:0x113 / me=umh / subme=8 / psy=1 / psy_rd=1.00:0.00 / mixed_ref=1 / me_range=32 / chroma_me=1 / trellis=2 / 8x8dct=1 / cqm=0 / deadzone=21,11 / fast_pskip=1 / chroma_qp_offset=-2 / threads=32 / lookahead_threads=5 / sliced_threads=0 / nr=0 / decimate=1 / interlaced=0 / bluray_compat=0 / constrained_intra=0 / bframes=3 / b_pyramid=2 / b_adapt=2 / b_bias=0 / direct=3 / weightb=1 / open_gop=0 / weightp=2 / keyint=240 / keyint_min=24 / scenecut=40 / intra_refresh=0 / rc_lookahead=50 / rc=2pass / mbtree=1 / bitrate=9564 / ratetol=1.0 / qcomp=0.60 / qpmin=0 / qpmax=69 / qpstep=4 / cplxblur=20.0 / qblur=0.5 / ip_ratio=1.40 / aq=3:0.80
  25. Default : Yes
  26. Forced : No

  27. Audio
  28. ID : 2
  29. Format : DTS
  30. Format/Info : Digital Theater Systems
  31. Codec ID : A_DTS
  32. Duration : 1 h 53 min
  33. Bit rate mode : Constant
  34. Bit rate : 1 509 kb/s
  35. Channel(s) : 6 channels
  36. Channel layout : C L R Ls Rs LFE
  37. Sampling rate : 48.0 kHz
  38. Frame rate : 93.750 FPS (512 SPF)
  39. Bit depth : 24 bits
  40. Compression mode : Lossy
  41. Stream size : 1.19 GiB (14%)
  42. Language : English
  43. Default : Yes
  44. Forced : No
复制代码

太空生活 High.Life.2018.1080p.BluRay.X264-AMIABLE电影下载

太空生活 High.Life.2018.1080p.BluRay.X264-AMIABLE(8.74GB)
High.Life.2018.1080p.BluRay.X264-AMIABLE.torrent (44.4 KB, 售价: 10 金币)
关闭

站长通知 上一条 /2 下一条

手机版|Archiver|小黑屋| Maiyehuo |网站地图

Copyright © 2001-2013 Comsenz Inc.   All Rights Reserved.

Powered by Discuz! X3.3

快速回复 返回顶部 返回列表