买野货

搜索
收起左侧

[1080p资源] 选美小姐 Miss.Bala.2019.1080p.WEB-DL.DD5.1.H264电影

[复制链接]
朱古力小酥酥 发表于 2019-4-15 10:22 | 显示全部楼层 |阅读模式
选美小姐.jpg
导演: 凯瑟琳·哈德威克
编剧: 加雷斯·邓内特-阿尔科塞
主演: 吉娜·罗德里格兹 / 托马斯·戴克 / 芭芭拉·帕多 / 克里斯蒂娜·罗朵 / 塞巴斯蒂安 卡诺 / 加比·奥里韦拉 / 达米安·阿尔卡扎 / 里卡多·阿瓦尔卡 / 伊斯梅尔·克鲁斯·科尔多瓦 / 马特·劳里亚 / 安东尼·麦凯 / 阿斯琳·德尔贝 / 何塞·赛法米
类型: 剧情
制片国家/地区: 墨西哥 / 美国
语言: 英语
上映日期: 2019-02-01(美国)
片长: 104分钟

 [暮光之城]导演凯瑟琳·哈德威克将执导索尼新版[选美小姐]。2011年的影片[选美小姐]曾代表墨西哥参加第84届奥斯卡最佳外语片的角逐。故事讲述女模特格洛里亚(吉娜·罗德里格兹 饰)因目睹黑帮犯罪过程而导致生活发生天翻地覆的变化。

  1. Video
  2. ID : 1
  3. Format : AVC
  4. Format/Info : Advanced Video Codec
  5. Format profile : High@L4
  6. Format settings : CABAC / 5 Ref Frames
  7. Format settings, CABAC : Yes
  8. Format settings, ReFrames : 5 frames
  9. Codec ID : V_MPEG4/ISO/AVC
  10. Duration : 1 h 43 min
  11. Bit rate : 4 542 kb/s
  12. Width : 1 920 pixels
  13. Height : 796 pixels
  14. Display aspect ratio : 2.40:1
  15. Frame rate mode : Constant
  16. Frame rate : 23.976 (24000/1001) FPS
  17. Color space : YUV
  18. Chroma subsampling : 4:2:0
  19. Bit depth : 8 bits
  20. Scan type : Progressive
  21. Bits/(Pixel*Frame) : 0.124
  22. Stream size : 3.30 GiB (92%)
  23. Title : Miss.Bala.2019.1080p.WEB-DL.DD5.1.H264-FGT
  24. Language : English
  25. Default : Yes
  26. Forced : No
  27. Color range : Limited
  28. Color primaries : BT.709
  29. Transfer characteristics : BT.709
  30. Matrix coefficients : BT.709

  31. Audio
  32. ID : 2
  33. Format : AC-3
  34. Format/Info : Audio Coding 3
  35. Commercial name : Dolby Digital
  36. Codec ID : A_AC3
  37. Duration : 1 h 43 min
  38. Bit rate mode : Constant
  39. Bit rate : 384 kb/s
  40. Channel(s) : 6 channels
  41. Channel layout : L R C LFE Ls Rs
  42. Sampling rate : 48.0 kHz
  43. Frame rate : 31.250 FPS (1536 SPF)
  44. Bit depth : 16 bits
  45. Compression mode : Lossy
  46. Stream size : 286 MiB (8%)
  47. Title : Miss.Bala.2019.1080p.WEB-DL.DD5.1.H264-FGT
  48. Language : English
  49. Service kind : Complete Main
  50. Default : Yes
  51. Forced : No
复制代码


选美小姐 Miss.Bala.2019.1080p.WEB-DL.DD5.1.H264电影下载

选美小姐 Miss.Bala.2019.1080p.WEB-DL.DD5.1.H264【1080p  3.58GB】
Miss.Bala.2019.1080p.WEB-DL.DD5.1.H264-FGT.torrent (36.31 KB)

手机版|Archiver|小黑屋| Maiyehuo |网站地图

Copyright © 2001-2013 Comsenz Inc.   All Rights Reserved.

Powered by Discuz! X3.3

快速回复 返回顶部 返回列表