买野货

搜索
收起左侧

白人男孩瑞克4k White.Boy.Rick.2018.INTERNAL.2160p.WEB.H265-DEFLATE电影

[复制链接]
kjhftuier 发表于 2019-3-13 09:57 | 显示全部楼层 |阅读模式

白人男孩瑞克

白人男孩瑞克


  1. Video
  2. ID : 1
  3. Format : HEVC
  4. Format/Info : High Efficiency Video Coding
  5. Format profile : Main 10@L5@Main
  6. Codec ID : V_MPEGH/ISO/HEVC
  7. Duration : 1 h 51 min
  8. Bit rate : 13.5 Mb/s
  9. Width : 3 840 pixels
  10. Height : 1 606 pixels
  11. Original height : 2 160 pixels
  12. Display aspect ratio : 16:9
  13. Frame rate mode : Constant
  14. Frame rate : 23.976 (24000/1001) FPS
  15. Color space : YUV
  16. Chroma subsampling : 4:2:0
  17. Bit depth : 10 bits
  18. Bits/(Pixel*Frame) : 0.092
  19. Stream size : 10.5 GiB (94%)
  20. Default : Yes
  21. Forced : No
  22. Color range : Limited

  23. Audio
  24. ID : 2
  25. Format : E-AC-3
  26. Format/Info : Enhanced AC-3
  27. Commercial name : Dolby Digital Plus
  28. Codec ID : A_EAC3
  29. Duration : 1 h 51 min
  30. Bit rate mode : Constant
  31. Bit rate : 640 kb/s
  32. Channel(s) : 6 channels
  33. Channel layout : L R C LFE Ls Rs
  34. Sampling rate : 48.0 kHz
  35. Frame rate : 31.250 FPS (1536 SPF)
  36. Compression mode : Lossy
  37. Delay relative to video : 9 ms
  38. Stream size : 509 MiB (4%)
  39. Language : English
  40. Service kind : Complete Main
  41. Default : Yes
  42. Forced : No
复制代码


白人男孩瑞克4k White.Boy.Rick.2018.INTERNAL.2160p.WEB.H265-DEFLATE电影下载

白人男孩瑞克4k White.Boy.Rick.2018.INTERNAL.2160p.WEB.H265-DEFLATE【4K 2160p 11.22GB】
白人男孩瑞克4k White.Boy.Rick.2018.INTERNAL.2160p.WEB.H265-DEFLATE.torrent (56.74 KB, 售价: 20 金币)
admin 发表于 2019-5-20 13:35 | 显示全部楼层
gd888 发表于 2019-3-13 16:54
查了一下,豆瓣评分只有6.2,分数比较低。另外楼主的简介里写的是7.1声道,但是看编码是6声道的,应该是5.1 ...

看第三个资源
hk631333 发表于 2019-3-15 05:04 | 显示全部楼层
没人回帖。。。我来个吧
zhoutaop1974 发表于 2019-3-14 15:09 | 显示全部楼层
豆瓣评分只有6.2,分数比较低
gd888 发表于 2019-3-13 16:54 | 显示全部楼层
查了一下,豆瓣评分只有6.2,分数比较低。另外楼主的简介里写的是7.1声道,但是看编码是6声道的,应该是5.1声道。

手机版|Archiver|小黑屋| Maiyehuo |网站地图

Copyright © 2001-2013 Comsenz Inc.   All Rights Reserved.

Powered by Discuz! X3.3

快速回复 返回顶部 返回列表